<?xml version="1.0" standalone="no"?>
<!DOCTYPE svg PUBLIC "-//W3C//DTD SVG 1.1//EN" "http://www.w3.org/Graphics/SVG/1.1/DTD/svg11.dtd" >
<svg xmlns="http://www.w3.org/2000/svg">
<metadata></metadata>
<defs>
<font id="pf_beausans_proregular" horiz-adv-x="1208" >
<font-face units-per-em="2048" ascent="1536" descent="-512" />
<missing-glyph horiz-adv-x="552" />
<glyph horiz-adv-x="0" />
<glyph horiz-adv-x="682" />
<glyph unicode=" "  horiz-adv-x="552" />
<glyph unicode="&#x09;" horiz-adv-x="552" />
<glyph unicode="&#xa0;" horiz-adv-x="552" />
<glyph unicode="!" horiz-adv-x="552" d="M141 117q0 55 39 95t96 40q59 0 97.5 -39t38.5 -96t-38 -96t-98 -39q-59 0 -97 37.5t-38 97.5zM174 1401q0 10 7 21.5t26 11.5h137q20 0 27.5 -11.5t5.5 -21.5l-39 -959q-2 -18 -10.5 -25t-34.5 -7h-41q-37 0 -37 26z" />
<glyph unicode="&#x22;" horiz-adv-x="727" d="M109 1407q-2 10 5 21.5t25 11.5h154q20 0 27.5 -11.5t5.5 -21.5l-47 -473q-4 -18 -12.5 -25.5t-30.5 -7.5h-43q-20 0 -27.5 7t-9.5 22zM401 1407q0 10 7.5 21.5t25.5 11.5h152q20 0 27.5 -11.5t4.5 -21.5l-47 -473q-4 -18 -11 -25.5t-34 -7.5h-41q-20 0 -27 7t-9 22z" />
<glyph unicode="#" d="M88 326l10 57q4 14 10.5 21.5t22.5 7.5h174l78 381h-182q-16 0 -20.5 6t-2.5 22l12 58q4 14 9.5 21t21.5 7h185l53 262q4 16 9 20.5t19 4.5h70q16 0 24.5 -4t4.5 -21l-54 -262h304l53 262q4 16 9 20.5t17 4.5h72q16 0 23.5 -4t5.5 -21l-55 -262h176q31 0 26 -28l-14 -58 q-4 -16 -9 -22t-22 -6h-180l-78 -381h182q31 0 25 -29l-10 -57q-4 -16 -10.5 -21.5t-22.5 -5.5h-186q0 -6 -8.5 -47t-18.5 -90t-18.5 -90t-10.5 -47q-4 -16 -7 -20.5t-19 -4.5h-72q-14 0 -22.5 4t-4.5 21l54 274h-301q-2 -6 -10.5 -47t-18.5 -90t-18.5 -90t-8.5 -47 q-4 -16 -8 -20.5t-20 -4.5h-72q-14 0 -22.5 4t-4.5 21l56 274h-174q-27 0 -21 27zM432 412h303l78 381h-303z" />
<glyph unicode="$" d="M111 123l45 104q8 23 32 13q66 -29 136.5 -48.5t138.5 -31.5v524q-150 63 -224.5 142t-74.5 206q0 133 75.5 227.5t223.5 126.5v173q0 20 8 24t25 4h30q18 0 25.5 -4t7.5 -24v-1760q0 -18 -7 -22t-26 -4h-30q-16 0 -24.5 4t-8.5 22v189q-92 10 -180 33.5t-162 62.5 q-25 10 -10 39zM344 1047q0 -57 29.5 -96.5t89.5 -73.5v329q-119 -44 -119 -159zM637 -201v1760q0 20 8 24t25 4h30q18 0 26.5 -4t8.5 -24v-164q131 -16 256 -70q23 -10 13 -31l-41 -112q-8 -23 -27 -13q-59 20 -107.5 32.5t-93.5 21.5v-463q70 -29 133.5 -62.5t111.5 -80 t76.5 -105.5t28.5 -141q0 -84 -26.5 -148.5t-72.5 -112t-110.5 -78t-140.5 -42.5v-191q0 -18 -8 -22t-27 -4h-30q-16 0 -24.5 4t-8.5 22zM735 160q74 23 122 72.5t48 127.5q0 72 -44 122t-126 91v-413z" />
<glyph unicode="%" horiz-adv-x="1822" d="M80 961q0 96 22.5 174.5t67.5 135t112.5 87.5t159.5 31q96 0 164 -30t111 -85t63.5 -134t20.5 -177q0 -193 -88 -310.5t-275 -117.5q-182 0 -270 114.5t-88 311.5zM231 963q0 -55 9.5 -110.5t33 -99.5t64.5 -71t104 -27q61 0 101.5 28t64 71t32.5 97.5t9 109.5t-9 110 t-33.5 98t-65.5 70t-103 27q-59 0 -99 -27t-63.5 -70t-34 -97t-10.5 -109zM431.5 -39q-7.5 6 2.5 23l838 1413q10 16 16 22t23 6h71q10 0 18.5 -6t-1.5 -22l-840 -1413q-16 -29 -43 -29h-63q-14 0 -21.5 6zM1020 414q0 193 90 309.5t272 116.5q96 0 164 -30t111 -85 t63.5 -134t20.5 -175q0 -195 -88 -311.5t-275 -116.5q-182 0 -270 113.5t-88 312.5zM1171 416q0 -55 9.5 -110.5t33 -99.5t64.5 -70.5t104 -26.5q61 0 101.5 27.5t64 70.5t32.5 97.5t9 109.5t-9 109.5t-33.5 97.5t-65.5 69.5t-103 26.5q-59 0 -99 -26.5t-63.5 -69.5 t-34 -96.5t-10.5 -108.5z" />
<glyph unicode="&#x26;" horiz-adv-x="1492" d="M141 324q0 76 26 144.5t69 129.5t102 112.5t127 92.5q-66 76 -111 165t-45 167q0 74 26.5 133t74 102t109 65.5t132.5 22.5q70 0 131.5 -21.5t105.5 -60.5t69.5 -93t25.5 -120q0 -74 -23.5 -132t-63.5 -107.5t-90 -89t-106 -72.5q66 -88 117 -148.5t105 -128.5 q61 113 146 204t202 126q23 8 44 12t46 7q20 0 24 -19l17 -98q4 -14 -4 -19.5t-19 -7.5q-78 -12 -132 -45t-93 -78t-68.5 -99t-56.5 -110q20 -29 66.5 -83t93.5 -107q53 -63 119 -135q6 -8 5 -20.5t-18 -12.5h-135q-18 0 -30.5 4t-22.5 19l-168 190q-78 -102 -182.5 -170 t-247.5 -68q-174 0 -270.5 93.5t-96.5 255.5zM311 340q0 -115 60.5 -163t154.5 -48q86 0 169 60.5t141 152.5l-273 342q-49 -31 -94 -66.5t-81 -78.5t-56.5 -92.5t-20.5 -106.5zM481 1145q0 -70 43 -141.5t88 -124.5q31 20 67 45.5t65.5 59.5t49 74t19.5 89q0 29 -9 58.5 t-28.5 53t-50.5 39t-72 15.5q-80 0 -126 -47t-46 -121z" />
<glyph unicode="'" horiz-adv-x="440" d="M113 1407q-2 10 5 21.5t25 11.5h152q23 0 29 -11.5t4 -21.5l-47 -473q-2 -18 -10.5 -25.5t-32.5 -7.5h-43q-20 0 -27.5 7t-9.5 22z" />
<glyph unicode="(" horiz-adv-x="593" d="M61 659q0 131 31 248t83 220.5t123 191.5t151 166q16 16 32 4l62 -43q10 -8 9 -14.5t-7 -12.5q-141 -164 -212 -346t-71 -403q0 -236 72 -418t211 -340q14 -14 0 -25l-64 -47q-18 -14 -30 2q-80 76 -151 165t-124 190.5t-84 217t-31 244.5z" />
<glyph unicode=")" horiz-adv-x="602" d="M66 -90q141 164 211.5 346t70.5 403q0 236 -71.5 417t-210.5 341q-14 14 0 25l65 47q16 12 31 -2q80 -78 150.5 -166t122.5 -190.5t83 -217t31 -243.5q0 -133 -31 -250t-83 -219.5t-121.5 -191.5t-149.5 -165q-16 -18 -33 -4l-63 45q-16 10 -2 25z" />
<glyph unicode="*" horiz-adv-x="976" d="M141 1118l25 80q8 33 41 16l242 -100l-23 270q-2 10 4 17.5t23 7.5h88q18 0 23 -8t3 -19l-22 -268l243 105q29 10 39 -15l27 -86q4 -16 -1 -23.5t-15 -9.5l-260 -69l174 -203q12 -14 10 -22.5t-14 -18.5l-66 -49q-18 -14 -27.5 -12t-19.5 18l-137 227l-142 -233 q-16 -27 -37 -8l-73 55q-23 16 -6 41l172 205l-250 65q-29 8 -21 37z" />
<glyph unicode="+" d="M106 651v107q0 16 5.5 25.5t25.5 9.5h379v389q0 20 8 25t25 5h113q16 0 23 -5t7 -25v-389h379q18 0 23.5 -9.5t5.5 -25.5v-107q0 -18 -5 -25.5t-24 -7.5h-379v-391q0 -20 -7 -25t-23 -5h-113q-16 0 -24.5 5t-8.5 25v391h-379q-20 0 -25.5 7.5t-5.5 25.5z" />
<glyph unicode="," horiz-adv-x="487" d="M121 -225l31 461q2 12 9 23t27 11h172q23 0 31 -11t4 -23l-137 -457q-6 -18 -12 -26.5t-27 -8.5h-61q-41 0 -37 31z" />
<glyph unicode="-" horiz-adv-x="739" d="M102 516v139q0 16 5.5 24.5t25.5 8.5h475q18 0 23.5 -8t5.5 -25v-139q0 -16 -5 -24.5t-24 -8.5h-475q-20 0 -25.5 8.5t-5.5 24.5z" />
<glyph unicode="." horiz-adv-x="528" d="M119 121q0 61 42 103t103 42q63 0 104.5 -41t41.5 -104q0 -61 -41 -103.5t-105 -42.5q-61 0 -103 41t-42 105z" />
<glyph unicode="/" horiz-adv-x="886" d="M31 -168l653 1733q8 29 39 28h119q10 0 18 -6t4 -22l-653 -1733q-12 -29 -43 -29h-111q-14 0 -22 6.5t-4 22.5z" />
<glyph unicode="0" d="M63 686q0 162 33 293t100.5 224t169 144.5t238.5 51.5q143 0 245.5 -50.5t167 -142.5t94.5 -223t30 -293q0 -160 -32 -292t-98.5 -225t-168 -144.5t-242.5 -51.5q-135 0 -236.5 50.5t-168 142.5t-99.5 223t-33 293zM246 690q0 -102 15 -202.5t56 -180.5t110 -130t177 -50 q104 0 173 50t110 130t57.5 179.5t16.5 199.5q0 102 -16.5 202.5t-57.5 180.5t-110.5 129t-176.5 49q-104 0 -172 -49t-108.5 -128t-57 -178t-16.5 -202z" />
<glyph unicode="1" d="M252 33v94q0 18 5 26.5t24 8.5h243v1034l-235 -37q-20 -4 -26.5 2t-6.5 23v80q0 18 6 27t27 16l297 88q45 12 79.5 -0.5t34.5 -59.5v-1173h252q20 0 25.5 -8.5t5.5 -26.5v-94q0 -16 -5 -24.5t-26 -8.5h-671q-18 0 -23.5 8t-5.5 25z" />
<glyph unicode="2" d="M117 143q0 66 43 158t135 188q78 82 164 144.5t151 103.5q68 41 115 76t78 68.5t44 68.5t13 78q0 98 -79 150.5t-208 52.5q-78 0 -160.5 -26.5t-154.5 -80.5q-29 -18 -45 2l-63 84q-14 25 10 43q90 68 199.5 107t224.5 39q94 0 177 -22.5t145.5 -66.5t99 -112t36.5 -158 q0 -76 -22.5 -136t-66.5 -112.5t-106.5 -99.5t-141.5 -92q-59 -35 -122 -81t-118 -101.5t-97 -120t-63 -135.5h709q20 0 25 -8.5t5 -26.5v-94q0 -16 -5 -24.5t-25 -8.5h-752q-84 0 -114.5 34t-30.5 109z" />
<glyph unicode="3" d="M88 145l62 91q16 25 49 4q76 -51 160.5 -75t168.5 -24q168 0 249 75t81 202q0 47 -20.5 89t-59.5 73.5t-95 50t-126 18.5h-57q-27 0 -41.5 10.5t-14.5 42.5v56q0 55 50 55h45q131 0 205.5 58.5t74.5 162.5q0 57 -24.5 95t-63.5 61.5t-87 34t-97 10.5q-88 0 -173 -24.5 t-151 -69.5q-31 -20 -49 4l-55 80q-14 20 4 37q82 68 201.5 103.5t236.5 35.5q92 0 172 -22.5t139.5 -66.5t94 -108.5t34.5 -148.5q0 -111 -61 -197t-166 -121v-10q121 -18 195.5 -107.5t74.5 -216.5q0 -90 -33.5 -167.5t-98 -135t-156.5 -90.5t-209 -33q-119 0 -240 27 t-213 105q-18 14 -6 36z" />
<glyph unicode="4" d="M45 399v23q0 33 9 59.5t34 59.5l598 780q23 31 50.5 57.5t66.5 26.5h59q55 0 77 -23.5t22 -78.5v-840h147q35 0 35 -31v-90q0 -18 -7.5 -24.5t-27.5 -6.5h-147v-280q0 -20 -8.5 -25.5t-24.5 -5.5h-115q-16 0 -24.5 5t-8.5 26v278h-637q-37 0 -67.5 17.5t-30.5 72.5z M248 471l2 -8h530v700l-4 2z" />
<glyph unicode="5" d="M100 143l60 90q18 25 51 5q76 -51 167 -75t189 -24q160 0 256.5 79t96.5 220q0 72 -26 122t-69 81t-97 45t-112 14q-57 0 -101 -6t-82 -17t-74.5 -26.5t-79.5 -34.5q-23 -10 -41.5 -9t-40.5 9l-31 13q-23 10 -37 29.5t-10 58.5l51 538q6 66 43 93.5t80 27.5h680 q20 0 25.5 -8t5.5 -25v-94q0 -18 -6.5 -26.5t-24.5 -8.5h-629l-45 -417q86 39 175 51t165 12q96 0 180 -28.5t146.5 -83t98.5 -131.5t36 -171q0 -111 -37 -197.5t-106.5 -148t-167 -94.5t-216.5 -33q-129 0 -252.5 28t-216.5 105q-18 14 -4 37z" />
<glyph unicode="6" d="M78 621q0 166 36 309t114.5 248.5t204.5 166t306 60.5q51 0 116 -8t112 -27q14 -6 19 -14t-1 -25l-31 -96q-8 -27 -43 -18q-29 10 -79 19t-95 9q-205 0 -322.5 -122t-140.5 -330q84 31 187.5 46t189.5 15q98 0 186.5 -25.5t156 -78t106.5 -131t39 -187.5q0 -117 -43 -203 t-114 -142t-163 -83t-190 -27q-266 0 -408.5 168t-142.5 476zM258 561q0 -94 27.5 -173t77 -135t118 -88t152.5 -32q147 0 235 74t88 213q0 57 -18 107.5t-56 87t-96.5 57t-136.5 20.5q-98 0 -189 -13t-200 -46q-2 -29 -2 -43.5v-28.5z" />
<glyph unicode="7" d="M88 1251v92q0 18 5 25.5t26 7.5h850q35 0 63.5 -15t28.5 -58v-48q0 -29 -8.5 -53t-24.5 -55l-588 -1110q-10 -20 -21 -28.5t-34 -8.5h-125q-16 0 -23.5 12.5t3.5 30.5l620 1174h-741q-20 0 -25.5 7t-5.5 27z" />
<glyph unicode="8" d="M94 379q0 59 19.5 115.5t54.5 103.5t83 84t107 55v4q-59 20 -100 55t-65.5 75t-35 81t-10.5 72q0 88 35 157.5t95.5 119t143.5 76t179 26.5q102 0 186 -27.5t142.5 -77t90.5 -116t32 -144.5q0 -33 -11.5 -74.5t-37 -83.5t-65.5 -79t-97 -60v-4q70 -20 120 -56t81.5 -84 t47 -103.5t15.5 -112.5q0 -68 -28.5 -138.5t-89 -130t-156 -97.5t-230.5 -38q-131 0 -226 32t-157.5 87.5t-92.5 128t-30 154.5zM276 387q0 -49 17.5 -95t55.5 -83t99.5 -58.5t149.5 -21.5q92 0 153.5 24.5t98.5 62.5t53.5 85t16.5 94q0 66 -27 114t-71 81t-102 48t-122 15 q-59 0 -116.5 -17.5t-102.5 -51t-74 -82.5t-29 -115zM326 1012q0 -47 22.5 -86t59 -67t86 -42t102.5 -14q51 0 101.5 15.5t89 44t62 67.5t23.5 88q0 98 -71.5 162.5t-204.5 64.5q-68 0 -118 -18.5t-84 -50t-51 -74.5t-17 -90z" />
<glyph unicode="9" d="M63 950q0 117 42 203t113 142.5t163 83t192 26.5q266 0 408.5 -168t142.5 -475q0 -166 -36.5 -309.5t-116.5 -249t-206 -166t-304 -60.5q-49 0 -113.5 8.5t-111.5 26.5q-16 6 -21.5 14.5t0.5 24.5l33 99q4 12 11 18t26 0q12 -4 33.5 -9t46 -10.5t50 -8.5t48.5 -3 q205 0 323.5 123t141.5 330q-84 -31 -179.5 -45.5t-181.5 -14.5q-98 0 -189 25t-161 77t-112 130.5t-42 187.5zM246 963q0 -57 20.5 -107.5t59.5 -87.5t96 -57.5t129 -20.5q98 0 190.5 13.5t198.5 46.5q2 29 2 43v28q0 94 -29.5 173t-81 135.5t-119 88t-143.5 31.5 q-63 0 -121.5 -18.5t-103.5 -55t-71.5 -89.5t-26.5 -123z" />
<glyph unicode=":" horiz-adv-x="548" d="M131 123q0 61 41 103t102 42q63 0 104.5 -40t41.5 -103q0 -61 -42 -102t-104 -41q-61 0 -102 40.5t-41 100.5zM131 924q0 59 41 101t102 42q63 0 104.5 -41t41.5 -102t-42 -103.5t-104 -42.5q-61 0 -102 41t-41 105z" />
<glyph unicode=";" horiz-adv-x="536" d="M135 -225l31 461q2 12 10 23t27 11h174q20 0 28.5 -11t4.5 -23l-136 -457q-6 -18 -13 -26.5t-28 -8.5h-59q-43 0 -39 31zM152 922q0 59 40.5 102t104.5 43q61 0 102 -42t41 -103q0 -59 -42 -101.5t-101 -42.5q-63 0 -104 41t-41 103z" />
<glyph unicode="&#x3c;" d="M106 668v63q0 27 10.5 38t39.5 26l911 424q18 8 25.5 0.5t7.5 -23.5v-102q0 -33 -29 -50l-735 -335l725 -324q23 -14 30 -23.5t7 -31.5v-113q0 -10 -7.5 -17t-21.5 -1l-913 419q-23 10 -34 19.5t-16 30.5z" />
<glyph unicode="=" d="M152 469v98q0 16 5 24.5t23 8.5h848q18 0 23.5 -8t5.5 -25v-98q0 -18 -5 -25.5t-24 -7.5h-848q-18 0 -23 7.5t-5 25.5zM152 831v101q0 16 5 23.5t23 7.5h848q18 0 23.5 -7.5t5.5 -23.5v-101q0 -16 -5 -24t-24 -8h-848q-18 0 -23 8t-5 24z" />
<glyph unicode="&#x3e;" d="M106 217v113q0 23 8.5 32t30.5 23l723 324l-733 335q-29 16 -29 50v102q0 16 7.5 23.5t23.5 -0.5l914 -424q29 -14 39 -25.5t10 -38.5v-63q-4 -20 -15.5 -29.5t-33.5 -20.5l-914 -419q-16 -6 -23.5 1t-7.5 17z" />
<glyph unicode="?" horiz-adv-x="1075" d="M119 1266q-16 25 8 43q45 37 99.5 63.5t109.5 44t107.5 25.5t95.5 8q98 0 180 -22.5t142.5 -68.5t93 -113.5t32.5 -155.5q0 -59 -18.5 -108.5t-49 -93.5t-69.5 -82t-80 -73t-80 -67.5t-69.5 -67.5t-50 -73t-19.5 -81v-55q0 -29 -29 -29h-125q-27 0 -26 27v64 q0 70 24.5 123t62.5 97t84 82t91 74q66 55 117 117t51 146q0 33 -12.5 68.5t-43 63t-81 46t-125.5 18.5q-78 0 -162 -27.5t-156 -80.5q-29 -18 -47 2zM317 119q0 59 43 99t103 40q16 0 39.5 -6t45 -21.5t36 -43t14.5 -68.5q0 -59 -40 -100.5t-99 -41.5t-100.5 40t-41.5 102z " />
<glyph unicode="@" horiz-adv-x="1986" d="M156 664q0 176 66.5 326.5t184 260t279.5 172t350 62.5q180 0 326.5 -52.5t251 -151.5t162 -241.5t57.5 -322.5q0 -109 -29.5 -198t-85 -153.5t-131.5 -100.5t-168 -36q-104 0 -165.5 38t-79.5 93q-47 -37 -125 -66.5t-150 -29.5q-147 0 -219 67.5t-72 190.5 q0 57 19.5 109.5t62.5 93.5t111.5 65.5t165.5 24.5h184v27q0 37 -7 65.5t-26.5 50t-55.5 32.5t-91 11t-116.5 -11t-104.5 -23q-16 -4 -26.5 -2t-14.5 20l-17 70q-4 10 -1 20t24 21q119 43 276 43q164 0 240 -74t76 -211v-342q0 -18 3 -44t17 -49.5t42 -38.5t77 -15 q117 0 181.5 96t64.5 250q0 150 -46.5 268.5t-132.5 201.5t-206.5 128t-270.5 45q-166 0 -301 -54.5t-232 -147.5t-149.5 -219t-52.5 -269q0 -154 52.5 -279t146.5 -215t224 -139t288 -49q35 0 105.5 8t148.5 35q16 4 25 2t16 -21l22 -59q4 -18 -3 -27.5t-23 -15.5 q-72 -29 -149 -41.5t-148 -12.5q-195 0 -351.5 59.5t-267.5 167t-171 257t-60 330.5zM764 522q0 -74 51 -101.5t113 -27.5q43 0 103.5 17.5t119.5 58.5v209h-178q-29 0 -65 -4t-68.5 -19.5t-54 -46t-21.5 -86.5z" />
<glyph unicode="A" horiz-adv-x="1265" d="M33 39l463 1317q16 49 36.5 64.5t67.5 17.5h62q55 0 74.5 -18.5t35.5 -63.5l461 -1317q3 -8 3 -15q0 -6 -2 -12q-5 -12 -26 -12h-135q-18 0 -29.5 4t-19.5 27l-102 301h-578l-102 -301q-10 -31 -43 -31h-140q-20 0 -25 12q-3 6 -3 14q0 6 2 13zM393 498h475l-137 428 l-96 301h-10l-93 -291z" />
<glyph unicode="B" horiz-adv-x="1320" d="M154 102v1229q0 53 22.5 79t81.5 26l457 2q94 0 173 -19.5t136 -62.5t90 -109.5t33 -161.5q0 -92 -47 -168.5t-127 -115.5v-15q63 -23 108 -60.5t73 -85.5t41 -103.5t13 -110.5q0 -96 -35.5 -174t-98 -134.5t-147.5 -87t-184 -30.5h-485q-55 0 -79.5 24.5t-24.5 77.5z M342 172h381q88 0 145.5 26.5t90 66.5t45 87t12.5 88q0 117 -75 188.5t-218 71.5h-381v-528zM342 858h377q33 0 74 9.5t76.5 33t59 65.5t23.5 107q0 86 -58 139.5t-159 53.5h-393v-408z" />
<glyph unicode="C" horiz-adv-x="1224" d="M113 696q0 172 45 312.5t127 240t197.5 152.5t254.5 53q88 0 182.5 -15.5t198.5 -68.5q12 -6 16.5 -16.5t-6.5 -30.5l-47 -94q-6 -12 -13 -17.5t-24 2.5q-143 63 -299 64q-117 0 -199.5 -49t-137 -130t-79 -186.5t-24.5 -216.5q0 -113 21.5 -211t74 -171.5t139.5 -116.5 t216 -43q90 0 172 20.5t153 52.5q23 10 33 2t14 -18l39 -86q9 -19 9 -29q0 -3 -1 -5q-4 -9 -18 -19q-49 -29 -105.5 -47.5t-112.5 -28.5t-111.5 -14.5t-104.5 -4.5q-143 0 -257 43t-191.5 131.5t-119.5 223.5t-42 321z" />
<glyph unicode="D" horiz-adv-x="1382" d="M154 102v1229q0 53 22.5 79t81.5 26l369 2q160 0 279.5 -49.5t200.5 -142.5t122 -225t41 -294t-38 -295t-115 -229.5t-193.5 -149.5t-276.5 -53h-389q-55 0 -79.5 24.5t-24.5 77.5zM344 172h281q129 0 216 41t139 114.5t74.5 175t22.5 220.5q0 113 -22.5 211t-76.5 172 t-142 117t-220 43h-272v-1094z" />
<glyph unicode="E" horiz-adv-x="1185" d="M154 350v733q0 70 18 134.5t60 112.5t108 77t160 29h559q23 0 30 -10.5t7 -32.5v-86q0 -23 -7.5 -32t-29.5 -9h-557q-86 0 -124 -38t-38 -118v-266h651q23 0 30 -10.5t7 -32.5v-78q0 -20 -7 -30.5t-30 -10.5h-651v-356q0 -70 37 -112t125 -42h567q25 0 32 -10t7 -33v-86 q0 -23 -7 -33t-32 -10h-569q-100 0 -167 28.5t-107 76t-56 111t-16 134.5z" />
<glyph unicode="F" horiz-adv-x="1165" d="M154 39v1044q0 70 17 134.5t57 112.5t106.5 77t165.5 29h563q25 0 32 -10.5t7 -32.5v-84q0 -25 -7.5 -34t-31.5 -9h-561q-86 0 -124 -37t-38 -117v-287h647q23 0 30 -9t7 -32v-79q0 -20 -7 -31.5t-30 -11.5h-647v-623q0 -25 -9 -32t-32 -7h-102q-23 0 -33 7t-10 32z" />
<glyph unicode="G" horiz-adv-x="1335" d="M113 700q0 172 44 311.5t124.5 238t197.5 151.5t262 53q86 0 188.5 -15.5t207.5 -68.5q10 -6 14 -16.5t-6 -30.5l-45 -102q-8 -14 -15.5 -18.5t-23.5 1.5q-68 33 -153 49.5t-163 16.5q-121 0 -204.5 -48t-136 -128t-76 -183.5t-23.5 -214.5q0 -117 20.5 -217t69.5 -174 t134 -116t214 -42q18 0 50 2.5t72 7.5t83 14t82 26v460q-20 4 -41.5 5.5t-42.5 1.5q-72 0 -148.5 -15.5t-150.5 -50.5q-23 -8 -32 -9t-19 15l-39 92q-14 25 14 45q66 43 160 68t189 25q53 0 87.5 -2.5t69.5 -8.5q78 -14 106.5 -50t28.5 -114v-516q0 -43 -32 -61 q-55 -35 -121 -55.5t-128.5 -30.5t-117.5 -14.5t-90 -4.5q-143 0 -256 43t-191.5 132.5t-120.5 225.5t-42 322z" />
<glyph unicode="H" horiz-adv-x="1409" d="M154 35v1364q0 23 10 29t29 6h112q23 0 31 -6.5t8 -28.5v-561h723v561q0 23 9 29t30 6h111q23 0 30.5 -6.5t7.5 -28.5v-1364q0 -23 -8 -29t-30 -6h-111q-20 0 -29.5 6t-9.5 29v639h-723v-639q0 -23 -8 -29t-31 -6h-112q-18 0 -28.5 6t-10.5 29z" />
<glyph unicode="I" horiz-adv-x="548" d="M180 35v1364q0 23 9.5 29t29.5 6h111q23 0 31 -6.5t8 -28.5v-1364q0 -23 -8.5 -29t-30.5 -6h-111q-20 0 -29.5 6t-9.5 29z" />
<glyph unicode="J" horiz-adv-x="1159" d="M14 100q-1 3 -1 7q0 9 7 24l50 94q12 27 45 8q72 -39 164 -62.5t186 -23.5q186 0 264 105.5t78 312.5l-2 834q0 23 10 29t29 6h110q23 0 31 -6.5t8 -28.5v-844q0 -274 -128 -426t-406 -152q-45 0 -98.5 5.5t-109.5 17.5t-112.5 32.5t-105.5 51.5q-14 8 -19 16z" />
<glyph unicode="K" horiz-adv-x="1292" d="M154 35v1364q0 23 10 29t29 6h106q23 0 31 -6.5t8 -28.5v-725l8 -2l207 260l381 477q20 25 65 25h152q16 0 21.5 -9.5t-5.5 -19.5l-391 -481l496 -883q7 -14 7 -23q0 -18 -26 -18h-131q-31 0 -45 5t-30 32l-402 731l-307 -381v-352q0 -23 -8 -29t-31 -6h-106 q-18 0 -28.5 6t-10.5 29z" />
<glyph unicode="L" horiz-adv-x="1130" d="M154 350v1051q0 23 9 30t27 7h111q23 0 31 -7.5t8 -29.5v-1063q0 -168 170 -168h569q18 0 23.5 -8t5.5 -25v-102q0 -18 -5 -26.5t-24 -8.5h-585q-98 0 -163 28.5t-105 76t-56 111t-16 134.5z" />
<glyph unicode="M" horiz-adv-x="1658" d="M154 35v1298q0 47 20.5 75t79.5 28h55q45 0 68.5 -15.5t44.5 -66.5l283 -701q4 -8 21 -54t38.5 -100.5t39 -100.5t21.5 -54h9q2 8 20 53t38.5 97.5t38 97.5t21.5 53q8 20 31 76.5t52.5 130.5t63.5 157t62.5 154.5t49 123.5t26.5 67q20 51 45 66.5t68 15.5h55 q61 0 80.5 -28t19.5 -75v-1298q0 -23 -8 -29t-31 -6h-102q-20 0 -29.5 6t-9.5 29v1067h-10q-4 -6 -20.5 -48t-36 -91.5t-36 -92.5t-18.5 -49q-6 -16 -24.5 -60t-42 -102.5t-50 -124t-51 -124t-43 -102.5t-24.5 -58q-16 -47 -37 -64.5t-68 -17.5h-67q-47 0 -68.5 17.5 t-38.5 64.5q-6 16 -25.5 60t-43 101.5t-51 123t-51 123t-43 101.5t-25.5 60l-105 262h-12v-1046q0 -23 -8.5 -29t-30.5 -6h-102q-20 0 -29.5 6t-9.5 29z" />
<glyph unicode="N" horiz-adv-x="1415" d="M154 35v1298q0 51 21.5 77t78.5 26h53q45 0 64.5 -18.5t48.5 -63.5l477 -789l174 -297h6v1133q0 23 9.5 29t29.5 6h107q20 0 29.5 -6.5t9.5 -28.5v-1299q0 -51 -20.5 -76.5t-80.5 -25.5h-53q-47 0 -66.5 18.5t-48.5 63.5l-487 807l-162 278h-6v-1132q0 -23 -8 -29t-31 -6 h-106q-18 0 -28.5 6t-10.5 29z" />
<glyph unicode="O" horiz-adv-x="1443" d="M113 715q0 178 46 316t127 232.5t192.5 143.5t242.5 49q150 0 264.5 -50t191 -145.5t115.5 -230.5t39 -307q0 -360 -154.5 -553t-459.5 -193q-303 0 -453.5 190.5t-150.5 547.5zM301 723q0 -127 20.5 -232.5t68.5 -182.5t128 -120t201 -43q119 0 199.5 47.5t130 127 t70 182t20.5 213.5q0 113 -17.5 216t-63.5 183t-126 127t-205 47q-111 0 -190.5 -45t-132 -123t-78 -180t-25.5 -217z" />
<glyph unicode="P" horiz-adv-x="1239" d="M154 35v1298q0 53 22.5 79t79.5 26h477q96 0 177 -31t139.5 -87t91.5 -135t33 -173q0 -55 -18.5 -131t-69 -143.5t-139.5 -115t-228 -47.5h-381v-540q0 -23 -8 -29t-31 -6h-106q-20 0 -29.5 6t-9.5 29zM340 741h350q145 0 217 68.5t72 191.5q0 43 -13.5 89.5t-46 84 t-90 63.5t-143.5 26h-346v-523z" />
<glyph unicode="Q" horiz-adv-x="1443" d="M113 715q0 178 46 316t127 232.5t192.5 143.5t242.5 49q150 0 264.5 -50t191 -145.5t115.5 -230.5t39 -307q0 -360 -154.5 -553t-459.5 -193q-303 0 -453.5 190.5t-150.5 547.5zM301 723q0 -127 20.5 -232.5t68.5 -182.5t128 -120t199 -43q121 0 201.5 47.5t130 127 t70 182t20.5 213.5q0 113 -17.5 216t-63.5 182t-126 126t-205 47q-111 0 -190.5 -45t-132 -122t-78 -179t-25.5 -217zM647 -152q0 18 5 25.5t24 7.5h225q80 0 153.5 -10t136 -27.5t113 -39t80.5 -44.5q14 -10 18 -18q1 -2 1 -6q0 -7 -6 -19l-47 -75q-12 -23 -32 -23 q-10 0 -22 6q-80 47 -193.5 71.5t-246.5 24.5h-180q-18 0 -23.5 9.5t-5.5 25.5v92z" />
<glyph unicode="R" horiz-adv-x="1282" d="M154 35v1298q0 53 22.5 79t81.5 26h469q98 0 177 -30t136.5 -84t88 -128t30.5 -162q0 -123 -61.5 -216t-169.5 -134v-8q84 -27 120.5 -79t57.5 -128l119 -432q2 -6 2 -13q0 -4 -1 -10q-3 -14 -26 -14h-135q-10 0 -21.5 4t-15.5 23l-108 391q-16 59 -43 98t-63 61.5 t-80 30.5t-95 8h-293v-581q0 -23 -8 -29t-31 -6h-114q-20 0 -29.5 6t-9.5 29zM348 780h342q74 0 127 19.5t87 53.5t50.5 78t16.5 95q0 41 -12.5 83t-43 77t-82 56.5t-128.5 21.5h-357v-484z" />
<glyph unicode="S" horiz-adv-x="1167" d="M78 125l49 108q10 23 33 13q106 -47 220 -73t208 -26q156 0 243 58.5t87 169.5q0 53 -22 93t-63.5 73.5t-105 63.5t-147.5 61q-113 41 -198 81.5t-141.5 89t-85 108t-28.5 136.5q0 168 115.5 272.5t339.5 104.5q102 0 215.5 -19.5t212.5 -62.5q23 -10 14 -35l-45 -114 q-6 -14 -11 -16.5t-16 1.5q-104 41 -199.5 58.5t-177.5 17.5q-123 0 -190.5 -54t-67.5 -138q0 -51 22.5 -88t67 -68t112 -59.5t159.5 -65.5q86 -33 164 -68.5t137 -85t95 -117t36 -161.5q0 -102 -39 -178t-106.5 -127t-159.5 -76t-199 -25q-59 0 -124.5 5.5t-133 17.5 t-134.5 32.5t-128 51.5q-14 7 -14 21q0 9 6 20z" />
<glyph unicode="T" horiz-adv-x="1120" d="M31 1300v101q0 16 5 24.5t23 8.5h1004q18 0 23.5 -8.5t5.5 -24.5v-101q0 -18 -5.5 -25t-23.5 -7h-412v-1233q0 -23 -8 -29t-29 -6h-116q-20 0 -29.5 6t-9.5 29v1233h-400q-18 0 -23 7t-5 25z" />
<glyph unicode="U" horiz-adv-x="1392" d="M152 1399q0 23 9 29t25 6h123q18 0 26.5 -6.5t8.5 -28.5v-770q0 -125 15.5 -216t62.5 -151.5t133 -89.5t227 -29q35 0 109 4.5t164 20.5v1231q0 23 8 29t27 6h120q18 0 23.5 -6.5t5.5 -28.5v-1219q0 -72 -31.5 -118t-120.5 -62q-78 -14 -162.5 -19.5t-150.5 -5.5 q-170 0 -288.5 32t-192.5 106.5t-106.5 198.5t-32.5 309z" />
<glyph unicode="V" horiz-adv-x="1288" d="M35 1409q-2 5 -2 9q0 6 2 10q4 8 16 8h148q25 0 34 -25q0 -4 20.5 -64.5t50.5 -151.5t66 -198.5t69.5 -207t59 -176t36.5 -103.5q2 -6 17 -53t33.5 -102.5t35 -103.5t20.5 -56h10l99 313l305 903q8 18 17 21.5t26 3.5h141q17 0 17 -13q0 -6 -3 -14l-467 -1333 q-14 -41 -31.5 -57.5t-58.5 -18.5h-88q-45 0 -67.5 14.5t-38.5 61.5z" />
<glyph unicode="W" horiz-adv-x="1703" d="M33 1409q-2 7 -2 12q0 15 18 15h146q31 0 34 -25l162 -856l60 -332h12l72 332l176 791q8 37 29.5 63.5t78.5 26.5h80q47 0 67.5 -25t30.5 -65l172 -783l72 -340h10l66 342l162 846q6 25 34 25h142q18 0 18 -15q0 -5 -2 -12l-282 -1333q-10 -47 -36 -61.5t-69 -14.5h-88 q-41 0 -60.5 23.5t-29.5 66.5l-184 819l-66 314h-6l-68 -316l-186 -817q-10 -41 -29.5 -65.5t-60.5 -24.5h-88q-43 0 -68.5 14.5t-36.5 61.5z" />
<glyph unicode="X" horiz-adv-x="1148" d="M22 8l-2 6q0 6 5 13l440 712l-410 672q-4 6 -1 15.5t18 9.5h141q27 0 36 -5.5t19 -23.5l310 -514l305 514q10 16 21 22.5t34 6.5h135q14 0 17.5 -9.5t-3.5 -19.5l-407 -664l444 -716q2 -5 2 -10q0 -3 -1 -7q-3 -10 -17 -10h-150q-23 0 -33 6t-20 23l-334 563l-333 -563 q-10 -16 -21.5 -22.5t-34.5 -6.5h-141q-15 0 -19 8z" />
<glyph unicode="Y" horiz-adv-x="1155" d="M24 1428q3 8 17 8h152q16 0 24 -5.5t16 -21.5l187 -352l160 -316h8l168 328l180 340q12 27 41 27h141q12 0 14 -8q2 -5 2 -9q0 -3 -1 -6l-459 -840v-542q0 -20 -7.5 -25.5t-23.5 -5.5h-119q-16 0 -24 5t-8 26v542l-467 840q-2 3 -2 8q0 3 1 7z" />
<glyph unicode="Z" horiz-adv-x="1245" d="M59 90v29q0 37 10.5 60.5t32.5 49.5q16 23 82 103t156 187.5t190.5 229t190.5 229t154.5 186.5t82.5 102l-4 6h-757q-20 0 -25.5 8t-5.5 25v98q0 16 5 24.5t26 8.5h852q53 0 80.5 -21.5t27.5 -75.5v-39q0 -37 -15.5 -64.5t-39.5 -55.5q-16 -20 -80 -97t-150 -182.5 t-184 -224.5t-184 -223.5t-149.5 -181t-80.5 -97.5q4 -4 5 -12h862q18 0 23 -7.5t5 -25.5v-96q0 -16 -5 -24.5t-23 -8.5h-981q-100 0 -101 90z" />
<glyph unicode="[" horiz-adv-x="630" d="M133 -141v1583q0 16 5 24.5t24 8.5h385q18 0 23 -8.5t5 -24.5v-74q0 -16 -5 -23.5t-23 -7.5h-238v-1374h238q18 0 23 -7t5 -24v-73q0 -16 -5 -25.5t-23 -9.5h-385q-18 0 -23.5 9t-5.5 26z" />
<glyph unicode="\" horiz-adv-x="886" d="M31 1565q-6 16 4 22t18 6h117q16 0 24.5 -6t16.5 -22l653 -1733q4 -16 -4 -22.5t-22 -6.5h-113q-29 0 -41 29z" />
<glyph unicode="]" horiz-adv-x="630" d="M104 -68q0 16 5.5 23.5t23.5 7.5h236v1374h-236q-18 0 -23.5 7.5t-5.5 23.5v74q0 16 5.5 24.5t23.5 8.5h383q18 0 23.5 -8.5t5.5 -24.5v-1583q0 -16 -5 -24.5t-24 -8.5h-383q-18 0 -23.5 8t-5.5 25v73z" />
<glyph unicode="^" horiz-adv-x="1075" d="M61.5 783.5q-4.5 9.5 4.5 23.5l380 629q14 23 26.5 37t35.5 14h35q29 0 40 -9.5t27 -35.5l381 -635q10 -16 3 -23.5t-21 -7.5h-119q-18 0 -29.5 6t-19.5 23l-270 463h-7q-6 -10 -25.5 -45t-47 -82t-59 -100.5t-59.5 -100.5t-47.5 -83t-25.5 -46q-12 -23 -22.5 -30 t-32.5 -7h-125q-18 0 -22.5 9.5z" />
<glyph unicode="_" horiz-adv-x="1024" d="M-29 -180q0 16 5.5 24.5t23.5 8.5h1024q18 0 23.5 -8.5t5.5 -24.5v-45q0 -18 -5.5 -25.5t-23.5 -7.5h-1024q-18 0 -23.5 7t-5.5 26v45z" />
<glyph unicode="`" horiz-adv-x="1038" d="M330 1539q2 9 18 13l144 37q29 2 38 -20l134 -316q10 -18 7 -24t-18 -10l-59 -23q-12 -4 -21.5 -2t-19.5 18l-217 308q-8 10 -6 19z" />
<glyph unicode="a" horiz-adv-x="1101" d="M92 317q0 70 23.5 136.5t77 117t138.5 81t208 30.5h249v45q0 49 -9 88t-35.5 67.5t-74.5 44t-124 15.5q-72 0 -153 -12t-132 -29q-16 -6 -26.5 -4t-14.5 18l-24 89q-4 10 -1 19t19 15q78 33 178.5 46.5t183.5 13.5q205 0 299.5 -91.5t94.5 -265.5v-641q0 -41 -31 -53 q-92 -41 -199.5 -55.5t-206.5 -14.5q-133 0 -218 28t-134 75t-68.5 108.5t-19.5 128.5zM270 317q0 -55 20.5 -93t55.5 -59.5t82 -30.5t102 -9q18 0 48 1t66 6t73 12.5t69 19.5v364h-237q-37 0 -85 -5t-91 -26.5t-73 -63.5t-30 -116z" />
<glyph unicode="b" horiz-adv-x="1146" d="M133 84v1382q0 20 8.5 25.5t24.5 5.5h115q16 0 23 -5t7 -26v-411q66 20 145 31.5t136 11.5q121 0 208 -41t144 -113t84 -173t27 -220q0 -125 -30 -230.5t-91.5 -181.5t-155.5 -119t-223 -43q-96 0 -200.5 15.5t-196.5 54.5q-25 8 -25 37zM311 164q59 -20 125 -27.5 t115 -7.5q70 0 129 23.5t102 72.5t66.5 126t23.5 188q0 203 -79.5 303t-221.5 100q-39 0 -110.5 -7t-149.5 -34v-737z" />
<glyph unicode="c" horiz-adv-x="978" d="M92 526q0 131 34 236.5t96.5 180.5t152.5 115t203 40q82 0 156.5 -16.5t144.5 -55.5q29 -16 12 -43l-43 -84q-6 -12 -13.5 -17t-25.5 5q-49 23 -106.5 37t-122.5 14q-82 0 -140.5 -34t-96.5 -91t-55.5 -131t-17.5 -156t14.5 -153.5t50.5 -125.5t95.5 -85t151.5 -31 q70 0 136 18.5t111 40.5q18 10 26.5 5t14.5 -15l41 -86q6 -10 6 -19q0 -14 -16 -24q-78 -43 -170 -58.5t-176 -15.5q-225 0 -344 138.5t-119 410.5z" />
<glyph unicode="d" horiz-adv-x="1144" d="M92 520q0 115 29 219.5t90 184.5t154.5 127t222.5 47q47 0 111.5 -5.5t131.5 -25.5v399q0 20 7.5 25.5t25.5 5.5h115q16 0 24.5 -5t8.5 -26v-1378q0 -27 -25 -37q-106 -47 -218 -60.5t-204 -13.5q-129 0 -218 38t-146.5 109t-83 171t-25.5 225zM276 520q0 -109 23 -182.5 t63.5 -119.5t100 -66.5t133.5 -20.5q51 0 119.5 10.5t115.5 26.5v741q-78 23 -131 29t-100 6q-70 0 -129 -24.5t-102 -75.5t-68 -131t-25 -193z" />
<glyph unicode="e" horiz-adv-x="1101" d="M92 532q0 135 36 241t99.5 177.5t149.5 109.5t188 38q117 0 202 -33t139.5 -93.5t81 -143.5t26.5 -183q0 -49 -12.5 -79.5t-34 -48t-49 -25t-58.5 -7.5h-588q0 -96 27 -163.5t71 -109.5t102 -60.5t126 -18.5t133.5 17.5t108.5 39.5q25 14 39 -10l43 -86q14 -29 -13 -41 q-74 -45 -158.5 -60.5t-166.5 -15.5q-115 0 -206 33t-154.5 100.5t-97.5 172t-34 249.5zM279 629h567q0 63 -12.5 121.5t-44 102.5t-86 69.5t-136.5 25.5q-68 0 -120 -26.5t-87.5 -70.5t-56 -101.5t-24.5 -120.5z" />
<glyph unicode="f" horiz-adv-x="694" d="M16 963v47q0 16 6.5 23t24.5 11q4 0 27.5 5.5t49.5 10.5t49.5 9t27.5 4v144q0 137 69.5 216.5t229.5 79.5q35 0 91 -5t116 -23q16 -4 17 -13v-6q0 -6 -1 -14l-21 -94q-6 -23 -30 -17q-41 8 -78 11.5t-66 3.5q-88 0 -118.5 -38t-30.5 -97v-146h260q20 0 25.5 -7t5.5 -24 v-81q0 -12 -5.5 -20.5t-25.5 -8.5h-260v-905q0 -18 -8.5 -23.5t-24.5 -5.5h-113q-18 0 -25 5t-7 24v905h-154q-20 0 -25.5 8t-5.5 21z" />
<glyph unicode="g" horiz-adv-x="1144" d="M92 522q0 125 30 230.5t90 181.5t154.5 119t223.5 43q98 0 202.5 -14.5t196.5 -53.5q25 -10 25 -39v-905q0 -137 -33 -231.5t-98.5 -158t-162.5 -98t-224 -53.5q-5 -1 -10 -1q-8 0 -14 3q-7 4 -11 21l-15 112q0 23 23 27q88 12 154.5 32.5t112.5 55.5t69.5 86t23.5 129 v12q-66 -20 -142.5 -32.5t-131.5 -12.5q-121 0 -208 41t-144.5 113t-84 172t-26.5 221zM274 535q0 -203 80 -303.5t221 -100.5q39 0 110 8t149 33v737q-59 20 -125 27.5t-113 7.5q-72 0 -131 -23.5t-101 -72.5t-66 -126t-24 -187z" />
<glyph unicode="h" horiz-adv-x="1150" d="M133 31v1435q0 20 8.5 25.5t24.5 5.5h113q16 0 24 -5t8 -26v-415q66 27 143.5 37t137.5 10q115 0 195.5 -34t133 -96.5t76 -151.5t23.5 -202v-583q0 -20 -8 -25.5t-25 -5.5h-115q-18 0 -25 5t-7 26v583q0 328 -279 328q-59 0 -129 -10t-121 -33v-868q0 -20 -8 -25.5 t-24 -5.5h-113q-16 0 -24.5 5t-8.5 26z" />
<glyph unicode="i" horiz-adv-x="530" d="M145 1362q0 51 36 86t85 35t84 -35t35 -86q0 -49 -35 -84t-84 -35t-85 35t-36 84zM174 31v1013q0 20 9.5 25.5t25.5 5.5h110q18 0 25.5 -5t7.5 -26v-1013q0 -20 -7 -25.5t-26 -5.5h-110q-16 0 -25.5 5t-9.5 26z" />
<glyph unicode="j" horiz-adv-x="561" d="M-47 -328q-2 6 -2 10q0 7 4 12q6 7 18 13q72 33 116 76t67.5 95t32 110.5t8.5 122.5v933q0 20 9 25.5t25 5.5h113q18 0 25.5 -5t7.5 -26v-901q0 -143 -27.5 -243.5t-75 -170t-113 -111.5t-138.5 -69q-7 -2 -12 -2q-16 0 -21 19zM168 1362q0 51 35 86t84 35t84 -35t35 -86 q0 -49 -35 -84t-84 -35t-84 35t-35 84z" />
<glyph unicode="k" horiz-adv-x="1011" d="M131 31v1435q0 20 8 25.5t25 5.5h112q18 0 25.5 -5t7.5 -26v-897l8 -4l414 494q6 8 13.5 12t23.5 4h158q10 0 13 -9t-3 -15l-274 -330l317 -698q3 -4 3 -9q0 -4 -1 -6q-2 -8 -18 -8h-134q-33 0 -41 23l-249 555l-230 -265v-282q0 -20 -7 -25.5t-26 -5.5h-112 q-16 0 -24.5 5t-8.5 26z" />
<glyph unicode="l" horiz-adv-x="559" d="M154 182v1284q0 20 8 25.5t24 5.5h115q18 0 25.5 -5t7.5 -26v-1233q0 -59 15.5 -78.5t56.5 -19.5q20 0 38.5 1t34.5 3q14 2 20.5 -1t8.5 -17l10 -80q1 -6 1 -11q0 -8 -2 -12q-3 -8 -19 -16q-35 -16 -79 -20.5t-77 -4.5q-104 0 -146 50.5t-42 154.5z" />
<glyph unicode="m" horiz-adv-x="1820" d="M133 29v891q0 61 26.5 96t74 53t113 23.5t142.5 5.5q125 0 208 -27t149 -86h2q76 53 175 83t214 30q125 0 210 -36t138 -102.5t77 -158.5t24 -203v-569q0 -18 -7.5 -23.5t-23.5 -5.5h-113q-16 0 -24.5 5t-8.5 24v540q0 190 -66.5 279.5t-230.5 89.5q-31 0 -66.5 -5 t-72.5 -14.5t-70.5 -21.5t-60.5 -27q29 -59 38 -129.5t9 -162.5v-549q0 -18 -8 -23.5t-27 -5.5h-110q-16 0 -24.5 5t-8.5 24v551q0 84 -13.5 150.5t-48 112.5t-95 70.5t-156.5 24.5q-27 0 -82.5 -3t-104.5 -13v-893q0 -18 -7 -23.5t-25 -5.5h-111q-16 0 -25.5 5t-9.5 24z " />
<glyph unicode="n" horiz-adv-x="1150" d="M133 31v893q0 70 27.5 107.5t101.5 47.5q23 4 56.5 7.5t70.5 6.5t72 4t59 1q131 0 225.5 -29t155 -91.5t89 -160.5t28.5 -237v-549q0 -20 -7 -25.5t-26 -5.5h-113q-16 0 -24 5t-8 26v542q0 92 -15.5 161t-53.5 115t-102.5 68.5t-162.5 22.5q-23 0 -76 -3t-119 -13v-893 q0 -20 -8 -25.5t-24 -5.5h-113q-16 0 -24.5 5t-8.5 26z" />
<glyph unicode="o" horiz-adv-x="1140" d="M92 537q0 135 36 239.5t100.5 176t152.5 108.5t190 37q233 0 355.5 -147.5t122.5 -407.5q0 -274 -124 -420t-360 -146q-231 0 -352 141.5t-121 418.5zM270 543q0 -92 14.5 -169t49.5 -131.5t91 -85t142 -30.5t144.5 35t93.5 92t49 131t14 152q0 80 -12 154.5t-45 131 t-90 91t-148 34.5q-78 0 -135 -32.5t-94 -88t-55.5 -129t-18.5 -155.5z" />
<glyph unicode="p" horiz-adv-x="1144" d="M133 -385v1372q0 27 25 35q102 45 210.5 60.5t206.5 15.5q123 0 213.5 -42t148.5 -117t87 -177t29 -223q0 -117 -30 -218.5t-88 -178t-148.5 -121t-208.5 -44.5q-57 0 -124 6.5t-143 28.5v-397q0 -18 -7 -23.5t-23 -5.5h-115q-16 0 -24.5 5.5t-8.5 23.5zM311 168 q78 -23 134.5 -30t103.5 -7q70 0 128 21.5t100 69.5t65.5 126t23.5 191t-22.5 190.5t-64.5 124.5t-100 68.5t-132 21.5q-53 0 -121 -10t-115 -29v-737z" />
<glyph unicode="q" horiz-adv-x="1146" d="M92 524q0 125 30 230.5t91 181.5t154.5 119t222.5 43q98 0 202.5 -15.5t196.5 -54.5q25 -8 25 -37v-1382q0 -20 -8.5 -25.5t-24.5 -5.5h-115q-18 0 -25 5t-7 26v411q-66 -20 -145 -31.5t-134 -11.5q-121 0 -208 41t-144.5 113t-84 172t-26.5 221zM274 537 q0 -203 80 -303.5t221 -100.5q39 0 110 7t149 34v737q-59 20 -124 27.5t-114 7.5q-72 0 -130 -23.5t-101 -72.5t-67 -126t-24 -187z" />
<glyph unicode="r" horiz-adv-x="851" d="M154 31v901q0 74 24.5 108.5t102.5 46.5q41 4 79.5 7.5t77.5 3.5q121 0 223.5 -33t188.5 -109q9 -9 9 -17q0 -7 -7 -15l-76 -99q-10 -14 -17 -11t-18 9q-57 55 -130.5 85t-159.5 30q-57 0 -121 -12v-895q0 -20 -8.5 -25.5t-24.5 -5.5h-113q-16 0 -23 5t-7 26z" />
<glyph unicode="s" horiz-adv-x="950" d="M73 76q-2 4 -2 8q0 8 5 18l39 84q6 16 15 20.5t30 -3.5q82 -39 169 -56.5t158 -17.5q98 0 155.5 40t57.5 114q0 76 -65.5 118.5t-185.5 85.5q-86 31 -148.5 62t-102.5 66.5t-58.5 80.5t-18.5 107q0 129 93 212t271 83q84 0 163 -13.5t159 -46.5q25 -12 16 -39l-39 -96 q-6 -12 -13 -12t-17 4q-82 31 -142.5 41t-130.5 10q-92 0 -139 -39t-47 -94q0 -35 13.5 -60.5t42 -47t75.5 -42t113 -45.5q63 -25 123.5 -51t106.5 -64t74.5 -89t28.5 -123q0 -80 -29.5 -138.5t-81.5 -97.5t-123 -58.5t-151 -19.5q-96 0 -204.5 18.5t-192.5 63.5 q-12 7 -17 17z" />
<glyph unicode="t" horiz-adv-x="755" d="M35 963v59q0 27 28 35l160 30l33 197q4 20 12 26.5t25 14.5l67 25q6 2 11 2q7 0 11 -4q8 -6 9 -25v-248h227q18 0 23.5 -8t5.5 -23v-81q0 -16 -5 -22.5t-24 -6.5h-227v-664q0 -72 32 -103.5t105 -31.5q27 0 75 5t83 10q18 4 23.5 -1.5t7.5 -15.5l18 -92q1 -8 1 -14v-7 q-1 -8 -17 -14q-59 -18 -125 -23.5t-94 -5.5q-160 0 -223.5 69t-63.5 212v676h-150q-18 0 -23 8t-5 21z" />
<glyph unicode="u" horiz-adv-x="1134" d="M133 489v558q0 20 8.5 25t24.5 5h113q16 0 24 -5t8 -25v-547q0 -92 12.5 -161t46 -114t96 -66.5t163.5 -21.5q23 0 75 3t119 14v893q0 20 7.5 25t25.5 5h113q16 0 24 -5t8 -25v-895q0 -131 -129 -156q-29 -4 -63.5 -7t-69 -5t-67.5 -3t-58 -1q-133 0 -224 27.5t-148.5 88 t-83 157.5t-25.5 236z" />
<glyph unicode="v" horiz-adv-x="1007" d="M29 1055q-1 4 -1 8q0 12 17 12h137q23 0 29 -18l192 -565l103 -334h10l98 329l187 570q6 18 28 18h136q17 0 17 -14q0 -3 -1 -6l-330 -975q-16 -49 -35.5 -69.5t-66.5 -20.5h-80q-39 0 -61.5 16.5t-42.5 71.5z" />
<glyph unicode="w" horiz-adv-x="1495" d="M35 1057q-1 5 -1 9q0 13 15 13h2h137q14 0 18.5 -5t8.5 -15l117 -592l55 -283h10l76 258l148 514q8 29 28.5 53.5t71.5 24.5h61q45 0 61.5 -22.5t26.5 -61.5l142 -477l88 -303h10l55 301l117 588q4 10 8 15t19 5h137q18 0 18 -13q0 -4 -2 -9l-217 -975 q-14 -59 -41.5 -75.5t-62.5 -16.5h-72q-47 0 -66.5 17.5t-33.5 66.5l-129 426l-88 327h-9l-90 -338l-129 -415q-12 -39 -32.5 -61.5t-67.5 -22.5h-78q-35 0 -59.5 16.5t-36.5 75.5z" />
<glyph unicode="x" horiz-adv-x="960" d="M23 31l356 538l-309 475q-6 8 -4 19.5t18 11.5h137q20 0 29.5 -7t15.5 -17l219 -353l222 353q8 10 17 17t26 7h133q18 0 19 -10t-3 -16l-317 -471l358 -549q4 -8 4 -18.5t-16 -10.5h-150q-23 0 -31 7t-14 18l-256 413l-262 -411q-8 -12 -17.5 -19.5t-29.5 -7.5h-131 q-20 0 -20 13q0 7 6 18z" />
<glyph unicode="y" horiz-adv-x="1003" d="M23 1053q-1 5 -1 8q0 14 17 14h2h137q23 0 29 -20q4 -14 17.5 -56.5t31.5 -98.5t38.5 -120.5t39 -121t32 -99.5t17.5 -55l104 -361h13q6 16 24.5 73.5t38 122t36.5 117t19 56.5t13.5 38t29 85t38 111.5t40 120t37 109.5t27.5 79q6 20 28 20h132q20 0 20 -13q0 -4 -2 -9 l-414 -1229q-47 -141 -120.5 -196.5t-188.5 -55.5q-29 0 -72 4t-94 18q-33 8 -24 33l22 90q4 16 12.5 19.5t22.5 -0.5q39 -10 58.5 -13.5t45.5 -3.5q70 0 113 28t70 110q2 6 10 28.5t17.5 48t16.5 48t9 28.5h-39q-29 0 -50.5 9.5t-37.5 62.5z" />
<glyph unicode="z" horiz-adv-x="942" d="M39 70v30q0 27 7 53.5t30 51.5l624 719l-2 6h-577q-18 0 -24.5 6t-6.5 22v86q0 14 5 22.5t26 8.5h696q47 0 66.5 -18.5t19.5 -59.5v-30q0 -23 -7 -46.5t-26 -46.5l-628 -724l2 -5h626q23 0 28 -8t5 -20v-86q0 -16 -6 -23.5t-27 -7.5h-751q-47 0 -63.5 20.5t-16.5 49.5z " />
<glyph unicode="{" horiz-adv-x="724" d="M117 635v82q0 14 4 19t20 9q59 12 87 58.5t28 144.5v207q0 88 24.5 150.5t67.5 102.5t103.5 58.5t134.5 20.5q12 0 15 -4t3 -13v-100q0 -10 -3 -15t-15 -7q-78 -4 -115 -48.5t-37 -103.5v-252q0 -98 -37 -165.5t-102 -98.5v-8q59 -29 99 -92.5t40 -165.5v-322 q0 -61 36 -105t114 -50q14 -2 17 -6.5t3 -14.5v-106q0 -16 -16 -17q-66 2 -126.5 20.5t-106.5 57.5t-72.5 100.5t-26.5 149.5v282q0 98 -28.5 144.5t-88.5 60.5q-12 4 -17 8.5t-5 18.5z" />
<glyph unicode="|" horiz-adv-x="436" d="M133 -248v1811q0 20 8.5 25t24.5 5h108q18 0 25.5 -5t7.5 -25v-1811q0 -20 -7 -25.5t-26 -5.5h-108q-16 0 -24.5 5.5t-8.5 25.5z" />
<glyph unicode="}" horiz-adv-x="724" d="M119 -84q0 18 22 21q80 8 114 53t34 110v314q0 102 40 165.5t99 92.5v8q-61 29 -100 93.5t-39 162.5v254q0 61 -36 107t-114 51q-20 2 -20 22v100q0 16 20 17q74 -2 134.5 -19.5t103.5 -56.5t66.5 -101.5t23.5 -154.5v-207q0 -98 27.5 -145t87.5 -58q27 -6 26 -28v-82 q0 -14 -6 -18.5t-16 -8.5q-61 -14 -90 -60t-29 -145v-272q0 -88 -25.5 -151.5t-70.5 -104.5t-104.5 -60.5t-129.5 -21.5q-18 0 -18 17v106z" />
<glyph unicode="~" d="M133 586q66 84 130.5 121.5t139.5 37.5q53 0 108.5 -20t109 -45t103.5 -45.5t93 -20.5q53 0 84 30t66 79q14 23 39 4l59 -39q20 -16 8 -41q-51 -86 -112.5 -129t-151.5 -43q-53 0 -107.5 19.5t-106.5 44t-101.5 44t-94.5 19.5q-49 0 -91 -23.5t-79 -64.5q-18 -18 -36 -4 l-54 41q-20 16 -6 35z" />
<glyph unicode="&#xa1;" horiz-adv-x="552" d="M147 940q0 57 39 97t97 40q59 0 98 -39t39 -98q0 -55 -40 -95t-97 -40t-96.5 39t-39.5 96zM182 -344l41 958q2 20 11.5 26.5t31.5 6.5h43q35 0 37 -26l39 -965q2 -10 -5 -21.5t-26 -11.5h-139q-20 0 -26.5 11.5t-6.5 21.5z" />
<glyph unicode="&#xa2;" d="M197 526q0 121 28.5 220.5t82.5 173t131 117.5t175 57v184q0 16 6.5 21.5t18.5 5.5h41q14 0 19.5 -5.5t5.5 -21.5v-180q76 -4 144.5 -20.5t133.5 -51.5q29 -16 12 -43l-43 -84q-6 -12 -13 -17t-26 5q-47 20 -98 33.5t-110 17.5v-807q66 2 127 19.5t102 39.5q18 10 26.5 5 t14.5 -15l41 -86q16 -27 -10 -43q-70 -39 -148 -53t-153 -18v-185q0 -16 -5.5 -21t-19.5 -5h-41q-12 0 -18.5 5t-6.5 21v185q-205 14 -311 151t-106 395zM375 526q0 -74 11 -138t39 -116.5t74 -87t115 -47.5v793q-63 -14 -108 -52t-75 -92.5t-43 -121t-13 -138.5z" />
<glyph unicode="&#xa3;" d="M150 690v66q0 16 5 24t23 8h150q-2 18 -8.5 47t-13.5 61t-12 63.5t-5 54.5q0 98 32.5 167.5t91 114.5t138.5 66.5t176 21.5q82 0 165 -15t150 -52q29 -14 13 -43l-39 -80q-6 -12 -14.5 -15t-26.5 5q-49 20 -114.5 34.5t-129.5 14.5q-121 0 -191.5 -51.5t-70.5 -155.5 q0 -20 4 -52t9 -66t10.5 -66.5t9.5 -53.5h403q18 0 23.5 -8t5.5 -24v-66q0 -18 -5 -26.5t-24 -8.5h-385q6 -55 6 -118q0 -45 -4 -95.5t-16 -99.5t-34.5 -96t-59.5 -84h643q18 0 23 -9.5t5 -25.5v-94q0 -16 -5 -24.5t-23 -8.5h-834q-39 0 -53 14.5t-14 38.5v33q0 39 13 55.5 t40 38.5q92 78 117.5 168t25.5 178q0 18 -1 53t-5 76h-166q-18 0 -23 8.5t-5 26.5z" />
<glyph unicode="&#xa4;" horiz-adv-x="1046" d="M76 172q-18 18 8 43l104 107q-41 53 -64.5 118.5t-23.5 143.5q0 72 21.5 134t60.5 116l-94 98q-23 20 -4 41l59 57q14 14 21.5 12t17.5 -12l101 -102q51 35 110.5 55.5t124.5 20.5q68 0 129.5 -20.5t112.5 -55.5l110 108q23 23 43 2l58 -57q12 -14 11 -22.5t-11 -20.5 l-111 -109q37 -53 58.5 -115.5t21.5 -129.5q0 -72 -21.5 -134.5t-58.5 -115.5l107 -105q14 -14 16 -23t-12 -24l-56 -59q-23 -16 -45 8l-108 109q-106 -76 -244 -76q-131 0 -227 65l-109 -110q-12 -14 -22 -16.5t-25 12.5zM264 582q0 -53 20.5 -100.5t55.5 -82t81 -54 t99 -19.5t100.5 19.5t82 54t55 81.5t20.5 101q0 51 -20.5 98t-55 81t-82 54.5t-100.5 20.5t-99 -20.5t-81 -54.5t-55.5 -81t-20.5 -98z" />
<glyph unicode="&#xa5;" d="M116 1368q3 8 17 8h139q14 0 22.5 -4t14.5 -20l166 -353l125 -286h6l121 286l160 353q8 25 39 24h137q12 0 14 -8t0 -14l-297 -617h254q18 0 24.5 -8t6.5 -24v-56q0 -18 -6 -25.5t-25 -7.5h-844q-18 0 -24 7.5t-6 25.5v56q0 16 5 24t25 8h228l-301 617q-4 6 -1 14z M160 416v57q0 16 5 24.5t25 8.5h844q18 0 24.5 -8.5t6.5 -24.5v-57q0 -18 -6 -25.5t-25 -7.5h-346v-354q0 -18 -6 -23.5t-25 -5.5h-114q-16 0 -23.5 5t-7.5 24v354h-322q-18 0 -24 7t-6 26z" />
<glyph unicode="&#xa6;" horiz-adv-x="436" d="M133 -248v819q0 18 8.5 23.5t24.5 5.5h108q18 0 25.5 -5t7.5 -24v-819q0 -20 -7 -25.5t-26 -5.5h-108q-16 0 -24.5 5.5t-8.5 25.5zM133 735v819q0 18 8.5 23.5t24.5 5.5h108q18 0 25.5 -5t7.5 -24v-819q0 -18 -7 -23t-26 -5h-108q-16 0 -24.5 5t-8.5 23z" />
<glyph unicode="&#xa7;" horiz-adv-x="1132" d="M137 760q0 76 45 149.5t117 120.5q-33 37 -51.5 83t-18.5 93q0 61 22.5 115.5t71 96.5t121 66.5t172.5 24.5q72 0 152 -13t139 -42q23 -16 13 -37l-39 -80q-4 -10 -11.5 -14t-23.5 2q-43 18 -101.5 31.5t-113.5 13.5q-125 0 -178.5 -40t-53.5 -105q0 -66 66.5 -130.5 t169.5 -144.5q82 -66 149.5 -123t116.5 -111t76 -109.5t27 -117.5q0 -72 -45.5 -143.5t-118.5 -118.5q35 -43 57.5 -93t22.5 -97q0 -59 -28 -113.5t-80 -96.5t-130 -66.5t-178 -24.5q-70 0 -147.5 14t-139.5 43q-23 16 -12 39l39 78q4 10 11 14t24 -2q45 -18 104 -31.5 t115 -13.5q123 0 178 46t55 110q0 57 -59.5 121.5t-149.5 136.5q-74 55 -143.5 112.5t-122.5 116t-86 117.5t-33 123zM309 768q0 -37 17.5 -69.5t54.5 -71.5t91 -85t128 -108q33 -29 76 -64.5t69 -52.5q35 25 59.5 65t24.5 81q0 45 -18 83t-54 78t-89 86t-123 105 q-41 35 -78 63.5t-57 51.5q-43 -29 -72 -72t-29 -90z" />
<glyph unicode="&#xa8;" horiz-adv-x="1150" d="M270 1372q0 41 35 75t78 34q41 0 76 -34t35 -75q0 -43 -35 -76.5t-76 -33.5q-43 0 -78 33.5t-35 76.5zM641 1372q0 41 34 75t77 34t77.5 -33t34.5 -76t-34.5 -76.5t-75.5 -33.5q-45 0 -79 33.5t-34 76.5z" />
<glyph unicode="&#xa9;" horiz-adv-x="1681" d="M104 715q0 158 56.5 294t156 235t234.5 155.5t293 56.5t293 -56.5t234 -155.5t155.5 -235t56.5 -294t-56.5 -293t-155.5 -233.5t-234.5 -155t-292.5 -56.5q-158 0 -293 56.5t-234.5 155t-156 233.5t-56.5 293zM205 715q0 -139 49 -257t135 -204t203 -135t252 -49 q137 0 253.5 49t202.5 135t134.5 204t48.5 257t-48.5 258t-134.5 205t-202.5 135t-253.5 49q-135 0 -252 -49t-203 -135t-135 -205t-49 -258zM465 698q0 106 27.5 192.5t78 148t122 95t159.5 33.5q84 0 152.5 -26.5t117.5 -83.5q4 -8 6 -15.5t-10 -17.5l-10 -10l-17.5 -17.5 t-18.5 -16.5t-11 -9q-10 -10 -18.5 -6t-18.5 14q-35 33 -76 51.5t-96 18.5q-131 0 -195.5 -98.5t-64.5 -252.5q0 -76 16.5 -140t49 -110.5t80.5 -72t114 -25.5q63 0 104 21.5t72 50.5q16 20 33 6l59 -49q12 -10 11 -18.5t-7 -16.5q-49 -55 -115.5 -85t-156.5 -30 q-92 0 -164 35t-121 96.5t-75.5 147.5t-26.5 190z" />
<glyph unicode="&#xaa;" horiz-adv-x="761" d="M53 762q0 49 17.5 93t55.5 79t97.5 55.5t145.5 20.5h157v18q0 49 -29.5 84t-121.5 35q-47 0 -100.5 -8.5t-88.5 -18.5q-14 -4 -26.5 -4t-16.5 17l-18 67q-6 25 20 37q51 20 121 28.5t129 8.5q145 0 212 -61.5t67 -178.5v-409q0 -33 -31 -45q-63 -23 -137.5 -35.5 t-140.5 -12.5q-92 0 -152.5 19.5t-96.5 51.5t-49.5 73t-13.5 86zM203 762q0 -63 47 -85t115 -22q23 0 69.5 3.5t89.5 17.5v205h-149q-23 0 -52.5 -3.5t-56 -14.5t-45 -34.5t-18.5 -66.5z" />
<glyph unicode="&#xab;" horiz-adv-x="989" d="M127 500q0 27 10 47t21 37l196 321q10 16 23.5 26.5t44.5 10.5h102q18 0 25.5 -12t-2.5 -29l-242 -405l250 -394q10 -18 3 -28.5t-28 -10.5h-104q-33 0 -45 10.5t-23 26.5l-204 324q-8 14 -17.5 36.5t-9.5 39.5zM463 500q0 27 10 47t21 37l196 321q10 16 23.5 26.5 t42.5 10.5h102q20 0 27.5 -12t-2.5 -29l-244 -405l250 -394q10 -18 3 -28.5t-26 -10.5h-106q-31 0 -43 10.5t-23 26.5l-205 324q-8 14 -17 36.5t-9 39.5z" />
<glyph unicode="&#xac;" d="M106 651v107q0 16 5.5 25.5t25.5 9.5h934q18 0 23.5 -9.5t5.5 -25.5v-531q0 -20 -7.5 -25t-25.5 -5h-113q-16 0 -24 5t-8 25v391h-785q-20 0 -25.5 7.5t-5.5 25.5z" />
<glyph unicode="&#xad;" horiz-adv-x="739" d="M102 516v139q0 16 5.5 24.5t25.5 8.5h475q18 0 23.5 -8t5.5 -25v-139q0 -16 -5 -24.5t-24 -8.5h-475q-20 0 -25.5 8.5t-5.5 24.5z" />
<glyph unicode="&#xae;" horiz-adv-x="1130" d="M104 983q0 98 35 184t97.5 149.5t147.5 99.5t183 36t182.5 -36t145.5 -99.5t96 -149.5t35 -184t-36 -182t-98.5 -147.5t-146 -99.5t-178.5 -36q-98 0 -183 36t-147.5 99.5t-97.5 147.5t-35 182zM186 983q0 -80 29 -150.5t80 -123t120.5 -83t151.5 -30.5q80 0 148.5 30.5 t119 83t79 123t28.5 150.5q0 82 -28.5 153.5t-79 125t-119 83t-148.5 29.5q-82 0 -151.5 -29.5t-120.5 -83t-80 -125t-29 -153.5zM371 725v496q0 49 45 49h182q78 0 126 -46t48 -118q0 -43 -23.5 -80t-58.5 -59q31 -12 43 -34t19 -48l45 -156q4 -4 1 -13t-20 -9h-49 q-18 0 -20 16l-43 147q-10 41 -37 56.5t-64 15.5h-106v-217q0 -12 -5 -15t-18 -3h-47q-10 0 -14 3t-4 15zM459 1018h125q53 0 77.5 24.5t24.5 59.5q0 31 -21.5 58.5t-74.5 27.5h-131v-170z" />
<glyph unicode="&#xaf;" horiz-adv-x="675" d="M61 1223v77q0 16 5.5 24.5t25.5 8.5h492q20 0 25 -8t5 -25v-77q0 -16 -5 -24.5t-25 -8.5h-492q-20 0 -25.5 8t-5.5 25z" />
<glyph unicode="&#xb0;" horiz-adv-x="759" d="M92 1151q0 61 22.5 113.5t61.5 89.5t91 58.5t114 21.5q61 0 113.5 -21.5t90.5 -58.5t59.5 -89.5t21.5 -113.5q0 -63 -21.5 -115.5t-60.5 -90.5t-91.5 -58.5t-113.5 -20.5t-113.5 20.5t-90.5 58.5t-60.5 90t-22.5 116zM205 1151q0 -80 50 -133t126 -53t127 53t51 133 q0 76 -51 128t-127 52t-126 -52t-50 -128z" />
<glyph unicode="&#xb1;" d="M104 27v116q0 14 5.5 20.5t25.5 6.5h934q18 0 23.5 -6t5.5 -21v-116q0 -16 -5.5 -22.5t-23.5 -6.5h-934q-20 0 -25.5 6t-5.5 23zM113 721v106q0 16 5 24.5t25 8.5h379v391q0 20 7.5 25.5t23.5 5.5h115q16 0 23 -5t7 -26v-391h377q20 0 25.5 -8t5.5 -25v-106 q0 -16 -5 -24.5t-26 -8.5h-377v-391q0 -18 -7 -23.5t-23 -5.5h-115q-16 0 -23.5 5.5t-7.5 23.5v391h-379q-20 0 -25 8.5t-5 24.5z" />
<glyph unicode="&#xb2;" horiz-adv-x="784" d="M66 831q0 41 27.5 96.5t86.5 112.5q53 51 109.5 88t97.5 62q80 45 115 76.5t35 74.5q0 49 -44 75t-118 26q-47 0 -96.5 -16.5t-94.5 -43.5q-14 -10 -27.5 -13t-23.5 13q0 2 -6 11.5t-13.5 19.5t-12.5 19.5t-5 11.5q-16 23 13 45q57 35 128.5 59.5t143.5 24.5 q61 0 117.5 -14.5t98.5 -42t66.5 -69.5t24.5 -99q0 -90 -61.5 -152.5t-161.5 -118.5q-33 -18 -69 -41.5t-67.5 -51.5t-58 -59.5t-41.5 -64.5h428q25 0 29 -8t4 -23v-65q0 -10 -4 -21.5t-29 -11.5h-473q-66 0 -92 21.5t-26 78.5z" />
<glyph unicode="&#xb3;" horiz-adv-x="784" d="M49 840l39 61q16 18 47 2q43 -25 100.5 -40t112.5 -15q98 0 142.5 41t44.5 98q0 49 -39 86t-131 37h-46q-23 0 -35 7t-12 36v33q0 45 45 45h35q74 0 118 30.5t44 84.5q0 27 -14.5 46t-37 29.5t-49 15.5t-53.5 5q-53 0 -104 -12.5t-92 -34.5q-20 -10 -30.5 -13.5 t-20.5 13.5l-35 61q-6 10 -6 19.5t16 21.5q61 41 139 59.5t156 18.5q59 0 111.5 -14.5t90.5 -42t59.5 -68.5t21.5 -92q0 -59 -29 -106.5t-82 -73.5v-7q66 -20 98.5 -72t32.5 -118q0 -113 -87 -187.5t-245 -74.5q-78 0 -157.5 17.5t-139.5 62.5q-25 16 -8 41z" />
<glyph unicode="&#xb4;" horiz-adv-x="952" d="M411 1229q-3 6 7 24l135 316q4 10 12 16t27 4l141 -37q16 -4 18.5 -13t-6.5 -19l-217 -308q-10 -16 -18 -18t-25 2l-57 23q-14 4 -17 10z" />
<glyph unicode="&#xb6;" horiz-adv-x="1030" d="M113 1063q0 76 27.5 143.5t77.5 118.5t119 81t150 30h179q20 0 20 -19v-704q0 -20 -20 -21h-179q-84 0 -152.5 29t-117.5 78t-76.5 116.5t-27.5 147.5zM510 -197q-2 8 2 16.5t14 10.5q84 10 136.5 31.5t81 55.5t38 79t9.5 104v1317q0 18 22 19h92q20 0 21 -19v-1315 q0 -90 -16.5 -161.5t-59.5 -124t-119 -83t-192 -38.5q-8 0 -13.5 3t-7.5 15z" />
<glyph unicode="&#xb7;" horiz-adv-x="538" d="M123 610q0 59 41 101.5t102 42.5q63 0 104.5 -41.5t41.5 -102.5t-42 -103t-104 -42q-61 0 -102 41t-41 104z" />
<glyph unicode="&#xb8;" horiz-adv-x="999" d="M371 -369l14 41q8 16 14.5 16.5t18.5 -3.5q31 -12 62.5 -17.5t60.5 -5.5q106 0 106 70q0 39 -36 55t-83 16h-35t-20 9q-12 6 -11 19t5 28l57 161q4 14 21 15h63q10 0 11.5 -5t-1.5 -10l-45 -133q57 -4 95.5 -18t62 -35.5t33.5 -49.5t10 -54q0 -29 -12 -58.5t-38 -53.5 t-67 -39t-96 -15q-51 0 -100 10t-78 25q-23 10 -12 32z" />
<glyph unicode="&#xb9;" horiz-adv-x="784" d="M152 766v63q0 18 6 24.5t28 6.5h138v561l-136 -24q-14 -2 -23 2t-9 24v56q0 18 4 26t24 15l195 49q35 10 64.5 0t29.5 -51v-658h139q25 0 31 -6t6 -25v-63q0 -20 -6 -27.5t-31 -7.5h-426q-23 0 -28.5 7t-5.5 28z" />
<glyph unicode="&#xba;" horiz-adv-x="786" d="M55 903q0 90 25.5 160t71 117t108 71.5t135.5 24.5q164 0 250 -97.5t86 -271.5q0 -180 -87 -277.5t-253 -97.5q-164 0 -250 94.5t-86 276.5zM205 907q0 -109 40 -179.5t146 -70.5q55 0 91 20.5t57.5 55.5t31 79t9.5 91q0 49 -8.5 94t-29 79t-56 54.5t-91.5 20.5 q-49 0 -86 -19.5t-59.5 -52t-33.5 -77t-11 -95.5z" />
<glyph unicode="&#xbb;" horiz-adv-x="989" d="M95.5 73.5q-7.5 10.5 2.5 28.5l252 394l-244 405q-10 16 -2.5 28.5t27.5 12.5h102q31 0 43.5 -10t22.5 -27l197 -321q10 -16 21 -37t11 -47q0 -16 -9 -39t-19 -37l-203 -324q-10 -16 -23.5 -26.5t-44.5 -10.5h-106q-20 0 -27.5 10.5zM431.5 73.5q-7.5 10.5 2.5 28.5 l252 394l-244 405q-10 16 -3 28.5t26 12.5h102q31 0 43.5 -10t24.5 -27l196 -321q8 -16 19.5 -37t11.5 -47q0 -16 -9 -39t-19 -37l-203 -324q-10 -16 -23.5 -26.5t-44.5 -10.5h-104q-20 0 -27.5 10.5z" />
<glyph unicode="&#xbc;" horiz-adv-x="1822" d="M182 582v63q0 18 6.5 24.5t28.5 6.5h137v561l-135 -25q-14 -2 -23.5 2.5t-9.5 24.5v55q0 18 4.5 26.5t24.5 14.5l195 49q35 10 64.5 0t29.5 -51v-657h139q25 0 31 -6t6 -25v-63q0 -20 -6 -27.5t-31 -7.5h-426q-23 0 -29 7t-6 28zM421 -39q-7 6 3 23l838 1413q10 16 16 22 t22 6h72q10 0 18.5 -6t-1.5 -22l-840 -1413q-16 -29 -43 -29h-64q-14 0 -21 6zM909 240v24q0 23 7.5 38t23.5 36l383 453q16 23 36.5 38t49.5 15h45q39 0 55.5 -15.5t16.5 -56.5v-471h82q23 0 26.5 -9t3.5 -28v-49q0 -16 -4 -26.5t-26 -10.5h-82v-147q0 -23 -9.5 -27 t-31.5 -4h-72q-18 0 -27.5 4t-9.5 27v145h-395q-27 2 -49.5 12.5t-22.5 51.5zM1102 309l2 -8h272v334l-6 2z" />
<glyph unicode="&#xbd;" horiz-adv-x="1822" d="M162 582v63q0 18 6 24.5t29 6.5h137v561l-135 -25q-14 -2 -23.5 2.5t-9.5 24.5v55q0 18 4 26.5t25 14.5l194 49q35 10 64.5 0t29.5 -51v-657h140q25 0 30.5 -6t5.5 -25v-63q0 -20 -6 -27.5t-30 -7.5h-426q-23 0 -29 7t-6 28zM382 -39q-7 6 3 23l838 1413q10 16 16 22 t23 6h71q10 0 18.5 -6t-1.5 -22l-840 -1413q-16 -29 -43 -29h-64q-14 0 -21 6zM1036 98q0 41 28 96.5t87 112.5q53 51 109.5 88t97.5 64q80 43 114.5 74.5t34.5 74.5q0 49 -44 75t-117 26q-47 0 -96.5 -16.5t-94.5 -43.5q-14 -10 -27.5 -13t-23.5 15l-6 9q-6 10 -13.5 21 t-12.5 21l-5 9q-16 25 12 45q57 37 129 60.5t144 23.5q61 0 117.5 -14.5t98.5 -42t66.5 -69.5t24.5 -100q0 -90 -61.5 -151.5t-161.5 -116.5q-66 -37 -136.5 -93t-99.5 -126h428q25 0 29 -8t4 -23v-65q0 -10 -4 -20.5t-29 -10.5h-473q-66 0 -92.5 21.5t-26.5 76.5z" />
<glyph unicode="&#xbe;" horiz-adv-x="1822" d="M127 655l39 62q16 18 47 2q43 -25 100.5 -40t112.5 -15q98 0 142 40.5t44 98.5q0 49 -38.5 86t-131.5 37h-45q-23 0 -35 7t-12 36v32q0 45 45 46h35q74 0 118 30.5t44 83.5q0 27 -14.5 46.5t-37 29.5t-49 15t-53.5 5q-53 0 -104 -12t-92 -35q-20 -10 -30.5 -13t-21.5 13 l-34 62q-6 10 -6 19t16 22q61 41 139 59.5t156 18.5q59 0 111.5 -14.5t90 -42t59 -68.5t21.5 -92q0 -59 -28.5 -106.5t-81.5 -74.5v-6q66 -20 98.5 -72.5t32.5 -117.5q0 -113 -87 -187.5t-245 -74.5q-78 0 -157.5 17t-139.5 62q-25 16 -8 41zM458 -39q-7 6 3 23l837 1413 q10 16 16.5 22t22.5 6h72q10 0 18.5 -6t-2.5 -22l-839 -1413q-16 -29 -43 -29h-64q-14 0 -21 6zM975 240v24q0 23 7 38t24 36l383 453q16 23 36.5 38t49.5 15h45q39 0 55 -15.5t16 -56.5v-471h82q23 0 27 -9t4 -28v-49q0 -16 -4 -26.5t-27 -10.5h-82v-147q0 -23 -9 -27 t-32 -4h-71q-18 0 -27.5 4t-9.5 27v145h-395q-27 2 -49.5 12.5t-22.5 51.5zM1167 309l2 -8h273v334l-6 2z" />
<glyph unicode="&#xbf;" horiz-adv-x="1071" d="M104 -35q0 63 21.5 115.5t56.5 97.5t78 85t86 77q76 63 134.5 125.5t60.5 144.5v56q0 10 6 19t22 9h125q27 0 27 -26v-66q0 -70 -24.5 -124t-63.5 -99t-87 -83t-93 -75q-66 -53 -114 -113.5t-48 -144.5q0 -35 12 -68.5t43 -62.5t81 -46t126 -17q78 0 162 26.5t155 79.5 q29 23 48 -2l55 -86q16 -23 -8 -41q-45 -37 -98.5 -63.5t-109 -44t-108.5 -26.5t-96 -9q-98 0 -180 22.5t-141.5 68.5t-93.5 113.5t-34 157.5zM492 936q0 59 40.5 99t100.5 40q59 0 100 -40t41 -99t-43 -100t-102 -41q-16 0 -40 6t-45.5 22.5t-36.5 44t-15 68.5z" />
<glyph unicode="&#xc0;" horiz-adv-x="1265" d="M33 39l463 1317q16 49 36.5 64.5t67.5 17.5h62q55 0 74.5 -18.5t35.5 -63.5l461 -1317q6 -14 1 -26.5t-26 -12.5h-135q-18 0 -29.5 4t-19.5 27l-102 301h-578l-102 -301q-10 -31 -43 -31h-140q-20 0 -25 11.5t-1 27.5zM305 1716l86 121q10 16 20.5 11t20.5 -13l289 -207 q14 -10 14 -17t-8 -20l-37 -59q-8 -10 -17 -10t-26 8l-338 153q-20 8 -4 33zM393 498h475l-137 428l-96 301h-10l-93 -291z" />
<glyph unicode="&#xc1;" horiz-adv-x="1265" d="M33 39l463 1317q16 49 36.5 64.5t67.5 17.5h62q55 0 74.5 -18.5t35.5 -63.5l461 -1317q6 -14 1 -26.5t-26 -12.5h-135q-18 0 -29.5 4t-19.5 27l-102 301h-578l-102 -301q-10 -31 -43 -31h-140q-20 0 -25 11.5t-1 27.5zM393 498h475l-137 428l-96 301h-10l-93 -291z M534 1610.5q1 7.5 15 17.5l287 207q10 8 21 11t22 -13l86 -117q16 -23 -4 -33l-347 -157q-18 -8 -24 -4t-15 14l-34 55q-8 12 -7 19.5z" />
<glyph unicode="&#xc2;" horiz-adv-x="1265" d="M33 39l463 1317q16 49 36.5 64.5t67.5 17.5h62q55 0 74.5 -18.5t35.5 -63.5l461 -1317q6 -14 1 -26.5t-26 -12.5h-135q-18 0 -29.5 4t-19.5 27l-102 301h-578l-102 -301q-10 -31 -43 -31h-140q-20 0 -25 11.5t-1 27.5zM295 1569q-14 18 0 30l254 205q43 35 80 35 q16 0 36.5 -5t49.5 -30l243 -205q20 -18 5 -38l-29 -35q-8 -10 -17.5 -7t-25.5 11l-264 133l-262 -137q-12 -6 -19.5 -5t-17.5 11zM393 498h475l-137 428l-96 301h-10l-93 -291z" />
<glyph unicode="&#xc3;" horiz-adv-x="1265" d="M33 39l463 1317q16 49 36.5 64.5t67.5 17.5h62q55 0 74.5 -18.5t35.5 -63.5l461 -1317q6 -14 1 -26.5t-26 -12.5h-135q-18 0 -29.5 4t-19.5 27l-102 301h-578l-102 -301q-10 -31 -43 -31h-140q-20 0 -25 11.5t-1 27.5zM279.5 1587q-5.5 6 3.5 21q35 61 88 102t127 41 q35 0 68.5 -11t65.5 -24.5t60.5 -25t57.5 -11.5q33 0 57 16.5t37 43.5q8 16 13 18t22 -2l77 -31q16 -4 22.5 -10t0.5 -20q-35 -74 -84 -114t-127 -40q-37 0 -70.5 11.5t-66.5 24.5t-64.5 24.5t-64.5 11.5q-29 0 -52.5 -16.5t-39.5 -41.5q-6 -10 -14.5 -14t-24.5 4l-70 31 q-16 6 -21.5 12zM393 498h475l-137 428l-96 301h-10l-93 -291z" />
<glyph unicode="&#xc4;" horiz-adv-x="1265" d="M33 39l463 1317q16 49 36.5 64.5t67.5 17.5h62q55 0 74.5 -18.5t35.5 -63.5l461 -1317q6 -14 1 -26.5t-26 -12.5h-135q-18 0 -29.5 4t-19.5 27l-102 301h-578l-102 -301q-10 -31 -43 -31h-140q-20 0 -25 11.5t-1 27.5zM332 1638q0 41 34.5 75t77.5 34q41 0 76 -34t35 -75 q0 -43 -35 -76.5t-76 -33.5q-43 0 -77.5 33.5t-34.5 76.5zM393 498h475l-137 428l-96 301h-10l-93 -291zM702 1638q0 41 34 75t77 34t78 -33t35 -76t-35 -76.5t-76 -33.5q-45 0 -79 33.5t-34 76.5z" />
<glyph unicode="&#xc5;" horiz-adv-x="1265" d="M33 39l463 1317q16 49 36.5 64.5t67.5 17.5h62q55 0 74.5 -18.5t35.5 -63.5l461 -1317q6 -14 1 -26.5t-26 -12.5h-135q-18 0 -29.5 4t-19.5 27l-102 301h-578l-102 -301q-10 -31 -43 -31h-140q-20 0 -25 11.5t-1 27.5zM393 498h475l-137 428l-96 301h-10l-93 -291z M434 1669q0 82 57.5 136.5t143.5 54.5q84 0 141.5 -53.5t57.5 -137.5t-57.5 -137t-141.5 -53q-86 0 -143.5 52t-57.5 138zM526 1669q0 -47 31 -76.5t78 -29.5t76.5 29.5t29.5 76.5t-29.5 77t-76.5 30t-78 -30t-31 -77z" />
<glyph unicode="&#xc6;" horiz-adv-x="1746" d="M35 29l407 1185q14 41 37 81t63 71t99 50.5t147 19.5h832q20 0 25.5 -9.5t5.5 -25.5v-103q0 -18 -5.5 -25t-25.5 -7h-502q-92 0 -131 -40t-39 -126v-258h611q20 0 25 -8.5t5 -26.5v-94q0 -16 -5 -25.5t-25 -9.5h-611v-344q0 -72 38 -118t132 -46h518q20 0 25.5 -8 t5.5 -25v-106q0 -16 -5 -23.5t-26 -7.5h-534q-90 0 -153.5 23.5t-104.5 66.5t-60.5 104.5t-21.5 139.5h-424l-100 -307q-8 -27 -39 -27h-146q-29 0 -18 29zM387 485h377v592q0 55 8 113.5t25 83.5q-51 0 -85 -9.5t-57.5 -24.5t-36 -36.5t-20.5 -44.5l-74 -225z" />
<glyph unicode="&#xc7;" horiz-adv-x="1224" d="M113 696q0 172 45 312.5t127 240t197.5 152.5t254.5 53q88 0 182.5 -15.5t198.5 -68.5q12 -6 16.5 -16.5t-6.5 -30.5l-47 -94q-6 -12 -13 -17.5t-24 2.5q-143 63 -299 64q-117 0 -199.5 -49t-137 -130t-79 -186.5t-24.5 -216.5q0 -113 21.5 -211t74 -171.5t139.5 -116.5 t216 -43q90 0 172 20.5t153 52.5q23 10 33 2t14 -18l39 -86q12 -25 8 -34t-18 -19q-98 -55 -208.5 -73.5t-209.5 -21.5l-30 -90q57 -4 95 -18t61.5 -35.5t33.5 -49.5t10 -54q0 -29 -12 -58.5t-37.5 -53.5t-66.5 -39t-97 -15q-51 0 -100 10t-78 25q-23 10 -12 32l14 41 q8 16 14.5 16.5t18.5 -3.5q31 -12 62.5 -17.5t60.5 -5.5q106 0 106 70q0 39 -35.5 55t-82.5 16h-35.5t-20.5 9q-12 6 -11 19t5 28l43 123q-252 20 -392 194t-140 520z" />
<glyph unicode="&#xc8;" horiz-adv-x="1185" d="M154 350v733q0 70 18 134.5t60 112.5t108 77t160 29h559q23 0 30 -10.5t7 -32.5v-86q0 -23 -7.5 -32t-29.5 -9h-557q-86 0 -124 -38t-38 -118v-266h651q23 0 30 -10.5t7 -32.5v-78q0 -20 -7 -30.5t-30 -10.5h-651v-356q0 -70 37 -112t125 -42h567q25 0 32 -10t7 -33v-86 q0 -23 -7 -33t-32 -10h-569q-100 0 -167 28.5t-107 76t-56 111t-16 134.5zM379 1716l86 121q10 16 20.5 11t20.5 -13l289 -207q14 -10 14 -17t-8 -20l-37 -59q-8 -10 -17.5 -10t-25.5 8l-338 153q-20 8 -4 33z" />
<glyph unicode="&#xc9;" horiz-adv-x="1185" d="M154 350v733q0 70 18 134.5t60 112.5t108 77t160 29h559q23 0 30 -10.5t7 -32.5v-86q0 -23 -7.5 -32t-29.5 -9h-557q-86 0 -124 -38t-38 -118v-266h651q23 0 30 -10.5t7 -32.5v-78q0 -20 -7 -30.5t-30 -10.5h-651v-356q0 -70 37 -112t125 -42h567q25 0 32 -10t7 -33v-86 q0 -23 -7 -33t-32 -10h-569q-100 0 -167 28.5t-107 76t-56 111t-16 134.5zM534 1610.5q1 7.5 15 17.5l287 207q10 8 21 11t22 -13l86 -117q16 -23 -4 -33l-347 -157q-18 -8 -24 -4t-15 14l-34 55q-8 12 -7 19.5z" />
<glyph unicode="&#xca;" horiz-adv-x="1185" d="M154 350v733q0 70 18 134.5t60 112.5t108 77t160 29h559q23 0 30 -10.5t7 -32.5v-86q0 -23 -7.5 -32t-29.5 -9h-557q-86 0 -124 -38t-38 -118v-266h651q23 0 30 -10.5t7 -32.5v-78q0 -20 -7 -30.5t-30 -10.5h-651v-356q0 -70 37 -112t125 -42h567q25 0 32 -10t7 -33v-86 q0 -23 -7 -33t-32 -10h-569q-100 0 -167 28.5t-107 76t-56 111t-16 134.5zM330 1569q-14 18 0 30l254 205q43 35 80 35q16 0 36.5 -5t49.5 -30l243 -205q20 -18 4 -38l-28 -35q-8 -10 -17.5 -7t-25.5 11l-264 133l-263 -137q-12 -6 -19 -5t-18 11z" />
<glyph unicode="&#xcb;" horiz-adv-x="1185" d="M154 350v733q0 70 18 134.5t60 112.5t108 77t160 29h559q23 0 30 -10.5t7 -32.5v-86q0 -23 -7.5 -32t-29.5 -9h-557q-86 0 -124 -38t-38 -118v-266h651q23 0 30 -10.5t7 -32.5v-78q0 -20 -7 -30.5t-30 -10.5h-651v-356q0 -70 37 -112t125 -42h567q25 0 32 -10t7 -33v-86 q0 -23 -7 -33t-32 -10h-569q-100 0 -167 28.5t-107 76t-56 111t-16 134.5zM371 1636q0 41 34.5 75t77.5 34q41 0 76 -34t35 -75q0 -43 -35 -76.5t-76 -33.5q-43 0 -77.5 33.5t-34.5 76.5zM741 1636q0 41 34 75t77 34t78 -33t35 -76t-35 -76.5t-76 -33.5q-45 0 -79 33.5 t-34 76.5z" />
<glyph unicode="&#xcc;" horiz-adv-x="548" d="M-68 1716l86 121q10 16 20.5 11t20.5 -13l289 -207q14 -10 14 -17t-8 -20l-37 -59q-8 -10 -17 -10t-26 8l-337 153q-20 8 -5 33zM180 35v1364q0 23 9.5 29t29.5 6h111q23 0 31 -6.5t8 -28.5v-1364q0 -23 -8.5 -29t-30.5 -6h-111q-20 0 -29.5 6t-9.5 29z" />
<glyph unicode="&#xcd;" horiz-adv-x="548" d="M180 35v1364q0 23 9.5 29t29.5 6h111q23 0 31 -6.5t8 -28.5v-1364q0 -23 -8.5 -29t-30.5 -6h-111q-20 0 -29.5 6t-9.5 29zM214 1610.5q1 7.5 15 17.5l287 207q10 8 21.5 11t21.5 -13l86 -117q16 -23 -4 -33l-346 -157q-18 -8 -24.5 -4t-14.5 14l-35 55q-8 12 -7 19.5z " />
<glyph unicode="&#xce;" horiz-adv-x="548" d="M-53 1569q-14 18 0 30l254 205q43 35 80 35q16 0 36.5 -5t49.5 -30l243 -205q20 -18 4 -38l-28 -35q-8 -10 -17.5 -7t-25.5 11l-264 133l-263 -137q-12 -6 -19 -5t-17 11zM180 35v1364q0 23 9.5 29t29.5 6h111q23 0 31 -6.5t8 -28.5v-1364q0 -23 -8.5 -29t-30.5 -6h-111 q-20 0 -29.5 6t-9.5 29z" />
<glyph unicode="&#xcf;" horiz-adv-x="548" d="M-16 1642q0 41 34.5 75t77.5 34q41 0 76 -34t35 -75q0 -43 -35 -76.5t-76 -33.5q-43 0 -77.5 33.5t-34.5 76.5zM180 35v1364q0 23 9.5 29t29.5 6h111q23 0 31 -6.5t8 -28.5v-1364q0 -23 -8.5 -29t-30.5 -6h-111q-20 0 -29.5 6t-9.5 29zM354 1642q0 41 34 75t77 34t78 -33 t35 -76t-35 -76.5t-76 -33.5q-45 0 -79 33.5t-34 76.5z" />
<glyph unicode="&#xd0;" horiz-adv-x="1382" d="M18 690v84q0 16 5.5 24.5t25.5 8.5h105v524q0 53 22.5 79t81.5 26l369 2q160 0 279.5 -49.5t200.5 -142.5t122 -225t41 -294t-38 -295t-115 -229.5t-193.5 -149.5t-276.5 -53h-389q-55 0 -79.5 24.5t-24.5 77.5v553h-105q-20 0 -25.5 8.5t-5.5 26.5zM346 172h277 q129 0 216 41t139 114.5t74.5 175t22.5 220.5q0 113 -22.5 211t-76.5 172t-142.5 117t-219.5 43h-268v-459h334q18 0 23.5 -8t5.5 -25v-84q0 -18 -5.5 -26.5t-23.5 -8.5h-334v-483z" />
<glyph unicode="&#xd1;" horiz-adv-x="1415" d="M154 35v1298q0 51 21.5 77t78.5 26h53q45 0 64.5 -18.5t48.5 -63.5l477 -789l174 -297h6v1133q0 23 9.5 29t29.5 6h107q20 0 29.5 -6.5t9.5 -28.5v-1299q0 -51 -20.5 -76.5t-80.5 -25.5h-53q-47 0 -66.5 18.5t-48.5 63.5l-487 807l-162 278h-6v-1132q0 -23 -8 -29t-31 -6 h-106q-18 0 -28.5 6t-10.5 29zM392.5 1607.5q-5.5 6.5 2.5 20.5q35 61 88.5 102.5t126.5 41.5q35 0 69 -11.5t65.5 -25t60.5 -24.5t57 -11q33 0 57.5 16.5t36.5 42.5q8 16 13.5 18.5t21.5 -1.5l78 -31q16 -4 22.5 -10t0.5 -21q-35 -74 -84 -113.5t-127 -39.5q-37 0 -71 11 t-66.5 24.5t-64.5 24.5t-65 11q-29 0 -52 -16.5t-40 -40.5q-6 -10 -14 -14.5t-25 4.5l-69 30q-16 6 -21.5 12.5z" />
<glyph unicode="&#xd2;" horiz-adv-x="1443" d="M113 715q0 178 46 316t127 232.5t192.5 143.5t242.5 49q150 0 264.5 -50t191 -145.5t115.5 -230.5t39 -307q0 -360 -154.5 -553t-459.5 -193q-303 0 -453.5 190.5t-150.5 547.5zM301 723q0 -127 20.5 -232.5t68.5 -182.5t128 -120t201 -43q119 0 199.5 47.5t130 127 t70 182t20.5 213.5q0 113 -17.5 216t-63.5 183t-126 127t-205 47q-111 0 -190.5 -45t-132 -123t-78 -180t-25.5 -217zM432 1716l86 121q10 16 20.5 11t20.5 -13l289 -207q14 -10 14 -17t-8 -20l-37 -59q-8 -10 -17 -10t-26 8l-338 153q-20 8 -4 33z" />
<glyph unicode="&#xd3;" horiz-adv-x="1443" d="M113 715q0 178 46 316t127 232.5t192.5 143.5t242.5 49q150 0 264.5 -50t191 -145.5t115.5 -230.5t39 -307q0 -360 -154.5 -553t-459.5 -193q-303 0 -453.5 190.5t-150.5 547.5zM301 723q0 -127 20.5 -232.5t68.5 -182.5t128 -120t201 -43q119 0 199.5 47.5t130 127 t70 182t20.5 213.5q0 113 -17.5 216t-63.5 183t-126 127t-205 47q-111 0 -190.5 -45t-132 -123t-78 -180t-25.5 -217zM620 1610.5q1 7.5 15 17.5l287 207q10 8 21 11t22 -13l86 -117q16 -23 -4 -33l-347 -157q-18 -8 -24 -4t-14 14l-35 55q-8 12 -7 19.5z" />
<glyph unicode="&#xd4;" horiz-adv-x="1443" d="M113 715q0 178 46 316t127 232.5t192.5 143.5t242.5 49q150 0 264.5 -50t191 -145.5t115.5 -230.5t39 -307q0 -360 -154.5 -553t-459.5 -193q-303 0 -453.5 190.5t-150.5 547.5zM301 723q0 -127 20.5 -232.5t68.5 -182.5t128 -120t201 -43q119 0 199.5 47.5t130 127 t70 182t20.5 213.5q0 113 -17.5 216t-63.5 183t-126 127t-205 47q-111 0 -190.5 -45t-132 -123t-78 -180t-25.5 -217zM389 1569q-14 18 0 30l254 205q43 35 80 35q16 0 36.5 -5t49.5 -30l244 -205q20 -18 4 -38l-29 -35q-8 -10 -17.5 -7t-25.5 11l-264 133l-262 -137 q-12 -6 -19.5 -5t-17.5 11z" />
<glyph unicode="&#xd5;" horiz-adv-x="1443" d="M113 715q0 178 46 316t127 232.5t192.5 143.5t242.5 49q150 0 264.5 -50t191 -145.5t115.5 -230.5t39 -307q0 -360 -154.5 -553t-459.5 -193q-303 0 -453.5 190.5t-150.5 547.5zM301 723q0 -127 20.5 -232.5t68.5 -182.5t128 -120t201 -43q119 0 199.5 47.5t130 127 t70 182t20.5 213.5q0 113 -17.5 216t-63.5 183t-126 127t-205 47q-111 0 -190.5 -45t-132 -123t-78 -180t-25.5 -217zM378 1614q-5 6 3 20q35 61 88 102.5t127 41.5q35 0 68.5 -11.5t65.5 -24.5t60.5 -24.5t57.5 -11.5q33 0 57.5 16.5t36.5 42.5q8 16 13.5 18.5t21.5 -1.5 l78 -31q16 -4 22 -10t0 -21q-35 -74 -84 -113.5t-127 -39.5q-37 0 -70.5 11t-66.5 24.5t-64.5 24.5t-64.5 11q-29 0 -52.5 -16t-39.5 -41q-6 -10 -14.5 -14t-24.5 4l-70 31q-16 6 -21 12z" />
<glyph unicode="&#xd6;" horiz-adv-x="1443" d="M113 715q0 178 46 316t127 232.5t192.5 143.5t242.5 49q150 0 264.5 -50t191 -145.5t115.5 -230.5t39 -307q0 -360 -154.5 -553t-459.5 -193q-303 0 -453.5 190.5t-150.5 547.5zM301 723q0 -127 20.5 -232.5t68.5 -182.5t128 -120t201 -43q119 0 199.5 47.5t130 127 t70 182t20.5 213.5q0 113 -17.5 216t-63.5 183t-126 127t-205 47q-111 0 -190.5 -45t-132 -123t-78 -180t-25.5 -217zM430 1651q0 41 35 74.5t78 33.5q41 0 75.5 -33.5t34.5 -74.5q0 -43 -34.5 -77t-75.5 -34q-43 0 -78 34t-35 77zM801 1651q0 41 33.5 74.5t76.5 33.5 t78 -32.5t35 -75.5t-35 -77t-76 -34q-45 0 -78.5 34t-33.5 77z" />
<glyph unicode="&#xd7;" d="M133 347q-2 9 12 24l334 336l-327 327q-14 14 -12.5 22.5t14.5 20.5l75 78q12 10 21.5 13t23.5 -11l328 -330l334 334q14 14 24.5 12t20.5 -14l80 -80q12 -12 13 -20t-11 -23l-336 -334l330 -327q14 -14 11 -24.5t-15 -20.5l-74 -76q-12 -12 -21.5 -14t-23.5 12l-328 328 l-336 -334q-14 -16 -22 -14.5t-21 14.5l-82 80q-10 12 -12 21z" />
<glyph unicode="&#xd8;" horiz-adv-x="1443" d="M113 715q0 178 46 316t127 232.5t192.5 143.5t242.5 49q242 0 393 -133l100 133q18 25 39 4l37 -26q10 -10 11.5 -16.5t-9.5 -20.5l-110 -144q76 -96 112.5 -229t36.5 -301q0 -360 -154.5 -553t-459.5 -193q-252 0 -398 134l-86 -113q-10 -14 -18 -13t-18 9l-39 24 q-18 12 -2 37l96 129q-139 186 -139 531zM301 723q0 -115 16.5 -211t57.5 -170l631 838q-47 51 -116 79.5t-163 28.5q-111 0 -190.5 -45t-132 -123t-78 -180t-25.5 -217zM430 258q49 -53 122 -83t173 -30q121 0 201 47.5t127 127t66.5 182t19.5 213.5q0 106 -15.5 205.5 t-56.5 177.5z" />
<glyph unicode="&#xd9;" horiz-adv-x="1392" d="M152 1399q0 23 9 29t25 6h123q18 0 26.5 -6.5t8.5 -28.5v-770q0 -125 15.5 -216t62.5 -151.5t133 -89.5t227 -29q35 0 109 4.5t164 20.5v1231q0 23 8 29t27 6h120q18 0 23.5 -6.5t5.5 -28.5v-1219q0 -72 -31.5 -118t-120.5 -62q-78 -14 -162.5 -19.5t-150.5 -5.5 q-170 0 -288.5 32t-192.5 106.5t-106.5 198.5t-32.5 309zM426 1716l86 121q10 16 20.5 11t20.5 -13l289 -207q14 -10 14 -17t-8 -20l-37 -59q-8 -10 -17.5 -10t-25.5 8l-338 153q-20 8 -4 33z" />
<glyph unicode="&#xda;" horiz-adv-x="1392" d="M152 1399q0 23 9 29t25 6h123q18 0 26.5 -6.5t8.5 -28.5v-770q0 -125 15.5 -216t62.5 -151.5t133 -89.5t227 -29q35 0 109 4.5t164 20.5v1231q0 23 8 29t27 6h120q18 0 23.5 -6.5t5.5 -28.5v-1219q0 -72 -31.5 -118t-120.5 -62q-78 -14 -162.5 -19.5t-150.5 -5.5 q-170 0 -288.5 32t-192.5 106.5t-106.5 198.5t-32.5 309zM572.5 1610.5q0.5 7.5 15.5 17.5l286 207q10 8 21.5 11t22.5 -13l86 -117q16 -23 -5 -33l-346 -157q-18 -8 -24 -4t-15 14l-34 55q-8 12 -7.5 19.5z" />
<glyph unicode="&#xdb;" horiz-adv-x="1392" d="M152 1399q0 23 9 29t25 6h123q18 0 26.5 -6.5t8.5 -28.5v-770q0 -125 15.5 -216t62.5 -151.5t133 -89.5t227 -29q35 0 109 4.5t164 20.5v1231q0 23 8 29t27 6h120q18 0 23.5 -6.5t5.5 -28.5v-1219q0 -72 -31.5 -118t-120.5 -62q-78 -14 -162.5 -19.5t-150.5 -5.5 q-170 0 -288.5 32t-192.5 106.5t-106.5 198.5t-32.5 309zM369 1569q-14 18 0 30l254 205q43 35 79 35q16 0 37 -5t49 -30l244 -205q20 -18 4 -38l-28 -35q-8 -10 -17.5 -7t-25.5 11l-265 133l-262 -137q-12 -6 -19 -5t-18 11z" />
<glyph unicode="&#xdc;" horiz-adv-x="1392" d="M152 1399q0 23 9 29t25 6h123q18 0 26.5 -6.5t8.5 -28.5v-770q0 -125 15.5 -216t62.5 -151.5t133 -89.5t227 -29q35 0 109 4.5t164 20.5v1231q0 23 8 29t27 6h120q18 0 23.5 -6.5t5.5 -28.5v-1219q0 -72 -31.5 -118t-120.5 -62q-78 -14 -162.5 -19.5t-150.5 -5.5 q-170 0 -288.5 32t-192.5 106.5t-106.5 198.5t-32.5 309zM403 1626q0 41 35 75t78 34q41 0 76 -34t35 -75q0 -43 -35 -76.5t-76 -33.5q-43 0 -78 33.5t-35 76.5zM774 1626q0 41 34 75t77 34t77.5 -33t34.5 -76t-34.5 -76.5t-75.5 -33.5q-45 0 -79 33.5t-34 76.5z" />
<glyph unicode="&#xdd;" horiz-adv-x="1155" d="M24 1427.5q3 8.5 17 8.5h152q16 0 24 -5.5t16 -21.5l187 -352l160 -316h8l168 328l180 340q12 27 41 27h141q12 0 14.5 -8.5t0.5 -14.5l-459 -840v-542q0 -20 -7.5 -25.5t-23.5 -5.5h-119q-16 0 -24 5t-8 26v542l-467 840q-4 6 -1 14.5zM491 1610.5q1 7.5 15 17.5 l287 207q10 8 21 11t22 -13l86 -117q16 -23 -4 -33l-347 -157q-18 -8 -24 -4t-15 14l-34 55q-8 12 -7 19.5z" />
<glyph unicode="&#xde;" horiz-adv-x="1239" d="M154 20v1383q0 20 7 25.5t23 5.5h125q18 0 25.5 -5.5t7.5 -25.5v-213h389q96 0 177 -31t139.5 -87t91 -134t32.5 -172q0 -55 -18 -130t-67.5 -143.5t-137.5 -116.5t-229 -48h-373q0 -76 -1 -150t-1 -149q0 -29 -25 -29h-147q-2 0 -4 2l-2 2q-8 0 -10 6t-2 10zM346 494 h344q143 0 215 69.5t72 190.5q0 43 -13.5 89t-46 85t-89 64.5t-142.5 25.5h-340v-524z" />
<glyph unicode="&#xdf;" horiz-adv-x="1136" d="M135 1016q0 109 29 194.5t84 145t132 90.5t173 31q109 0 186.5 -32t126.5 -83t72 -115.5t23 -132.5q0 -33 -8.5 -74t-29 -80.5t-52 -73.5t-80.5 -55v-6q55 -14 101 -51t80 -89t53 -115.5t19 -129.5q0 -121 -40.5 -213t-110.5 -153.5t-163 -91t-198 -27.5q-14 0 -19 3 t-5 19v91q0 25 22 24q72 0 133.5 21.5t105.5 64.5t69.5 105.5t25.5 144.5q0 55 -15 110.5t-49 99.5t-89.5 71.5t-137.5 27.5q-31 0 -47 12.5t-16 43.5v32q0 61 57 62q57 0 99.5 17.5t68 48t37.5 69.5t12 82q0 39 -12 79t-39.5 72.5t-72 54t-107.5 21.5q-70 0 -116 -26.5 t-73.5 -68.5t-39 -93t-11.5 -99v-1013q0 -20 -7 -25.5t-23 -5.5h-113q-16 0 -24.5 5t-8.5 26z" />
<glyph unicode="&#xe0;" horiz-adv-x="1101" d="M92 317q0 70 23.5 136.5t77 117t138.5 81t208 30.5h249v45q0 49 -9 88t-35.5 67.5t-74.5 44t-124 15.5q-72 0 -153 -12t-132 -29q-16 -6 -26.5 -4t-14.5 18l-24 89q-4 10 -1 19t19 15q78 33 178.5 46.5t183.5 13.5q205 0 299.5 -91.5t94.5 -265.5v-641q0 -41 -31 -53 q-92 -41 -199.5 -55.5t-206.5 -14.5q-133 0 -218 28t-134 75t-68.5 108.5t-19.5 128.5zM270 317q0 -55 20.5 -93t55.5 -59.5t82 -30.5t102 -9q18 0 48 1t66 6t73 12.5t69 19.5v364h-237q-37 0 -85 -5t-91 -26.5t-73 -63.5t-30 -116zM326 1539q2 9 18 13l143 37q29 2 39 -20 l133 -316q10 -18 7.5 -24t-17.5 -10l-59 -23q-12 -4 -21.5 -2t-19.5 18l-217 308q-8 10 -6 19z" />
<glyph unicode="&#xe1;" horiz-adv-x="1101" d="M92 317q0 70 23.5 136.5t77 117t138.5 81t208 30.5h249v45q0 49 -9 88t-35.5 67.5t-74.5 44t-124 15.5q-72 0 -153 -12t-132 -29q-16 -6 -26.5 -4t-14.5 18l-24 89q-4 10 -1 19t19 15q78 33 178.5 46.5t183.5 13.5q205 0 299.5 -91.5t94.5 -265.5v-641q0 -41 -31 -53 q-92 -41 -199.5 -55.5t-206.5 -14.5q-133 0 -218 28t-134 75t-68.5 108.5t-19.5 128.5zM270 317q0 -55 20.5 -93t55.5 -59.5t82 -30.5t102 -9q18 0 48 1t66 6t73 12.5t69 19.5v364h-237q-37 0 -85 -5t-91 -26.5t-73 -63.5t-30 -116zM460 1229q-3 6 7 24l135 316 q4 10 12.5 16t26.5 4l141 -37q16 -4 18.5 -13t-5.5 -19l-217 -308q-10 -16 -18.5 -18t-24.5 2l-58 23q-14 4 -17 10z" />
<glyph unicode="&#xe2;" horiz-adv-x="1101" d="M92 317q0 70 23.5 136.5t77 117t138.5 81t208 30.5h249v45q0 49 -9 88t-35.5 67.5t-74.5 44t-124 15.5q-72 0 -153 -12t-132 -29q-16 -6 -26.5 -4t-14.5 18l-24 89q-4 10 -1 19t19 15q78 33 178.5 46.5t183.5 13.5q205 0 299.5 -91.5t94.5 -265.5v-641q0 -41 -31 -53 q-92 -41 -199.5 -55.5t-206.5 -14.5q-133 0 -218 28t-134 75t-68.5 108.5t-19.5 128.5zM238 1260l264 266q39 37 78 37q27 0 45 -7.5t41 -29.5l252 -262q14 -16 13 -25.5t-11 -19.5l-35 -31q-18 -12 -41 4l-264 192l-263 -196q-23 -16 -41 4l-36 39q-16 12 -2 29zM270 317 q0 -55 20.5 -93t55.5 -59.5t82 -30.5t102 -9q18 0 48 1t66 6t73 12.5t69 19.5v364h-237q-37 0 -85 -5t-91 -26.5t-73 -63.5t-30 -116z" />
<glyph unicode="&#xe3;" horiz-adv-x="1101" d="M92 317q0 70 23.5 136.5t77 117t138.5 81t208 30.5h249v45q0 49 -9 88t-35.5 67.5t-74.5 44t-124 15.5q-72 0 -153 -12t-132 -29q-16 -6 -26.5 -4t-14.5 18l-24 89q-4 10 -1 19t19 15q78 33 178.5 46.5t183.5 13.5q205 0 299.5 -91.5t94.5 -265.5v-641q0 -41 -31 -53 q-92 -41 -199.5 -55.5t-206.5 -14.5q-133 0 -218 28t-134 75t-68.5 108.5t-19.5 128.5zM220.5 1321q-5.5 6 2.5 20q35 61 88.5 102.5t126.5 41.5q35 0 69 -11.5t65.5 -24.5t60.5 -24.5t57 -11.5q33 0 57.5 16.5t36.5 43.5q8 16 13.5 18t21.5 -2l78 -31q16 -4 22.5 -10 t0.5 -21q-35 -74 -84 -113.5t-127 -39.5q-37 0 -71 11t-66.5 24.5t-64.5 25t-65 11.5q-29 0 -52 -16.5t-40 -41.5q-6 -10 -14 -14t-25 4l-69 31q-16 6 -21.5 12zM270 317q0 -55 20.5 -93t55.5 -59.5t82 -30.5t102 -9q18 0 48 1t66 6t73 12.5t69 19.5v364h-237q-37 0 -85 -5 t-91 -26.5t-73 -63.5t-30 -116z" />
<glyph unicode="&#xe4;" horiz-adv-x="1101" d="M92 317q0 70 23.5 136.5t77 117t138.5 81t208 30.5h249v45q0 49 -9 88t-35.5 67.5t-74.5 44t-124 15.5q-72 0 -153 -12t-132 -29q-16 -6 -26.5 -4t-14.5 18l-24 89q-4 10 -1 19t19 15q78 33 178.5 46.5t183.5 13.5q205 0 299.5 -91.5t94.5 -265.5v-641q0 -41 -31 -53 q-92 -41 -199.5 -55.5t-206.5 -14.5q-133 0 -218 28t-134 75t-68.5 108.5t-19.5 128.5zM270 317q0 -55 20.5 -93t55.5 -59.5t82 -30.5t102 -9q18 0 48 1t66 6t73 12.5t69 19.5v364h-237q-37 0 -85 -5t-91 -26.5t-73 -63.5t-30 -116zM285 1374q0 41 34.5 75t77.5 34 q41 0 76 -34t35 -75q0 -43 -35 -76.5t-76 -33.5q-43 0 -77.5 33.5t-34.5 76.5zM655 1374q0 41 34 75t77 34t78 -33t35 -76t-35 -76.5t-76 -33.5q-45 0 -79 33.5t-34 76.5z" />
<glyph unicode="&#xe5;" horiz-adv-x="1101" d="M92 317q0 70 23.5 136.5t77 117t138.5 81t208 30.5h249v45q0 49 -9 88t-35.5 67.5t-74.5 44t-124 15.5q-72 0 -153 -12t-132 -29q-16 -6 -26.5 -4t-14.5 18l-24 89q-4 10 -1 19t19 15q78 33 178.5 46.5t183.5 13.5q205 0 299.5 -91.5t94.5 -265.5v-641q0 -41 -31 -53 q-92 -41 -199.5 -55.5t-206.5 -14.5q-133 0 -218 28t-134 75t-68.5 108.5t-19.5 128.5zM270 317q0 -55 20.5 -93t55.5 -59.5t82 -30.5t102 -9q18 0 48 1t66 6t73 12.5t69 19.5v364h-237q-37 0 -85 -5t-91 -26.5t-73 -63.5t-30 -116zM393 1389q0 82 57.5 136t143.5 54 q84 0 141.5 -53t57.5 -137t-57.5 -137.5t-141.5 -53.5q-86 0 -143.5 52.5t-57.5 138.5zM485 1389q0 -47 31 -77t78 -30t76.5 30t29.5 77t-29.5 76.5t-76.5 29.5t-78 -29.5t-31 -76.5z" />
<glyph unicode="&#xe6;" horiz-adv-x="1767" d="M92 299q0 61 19.5 123.5t66.5 113t126 81t198 30.5h262q27 158 -37.5 226.5t-204.5 68.5q-72 0 -149.5 -12t-130.5 -29q-16 -6 -25.5 -4t-13.5 18l-25 89q-6 25 17 34q78 33 176 46.5t180 13.5q135 0 217 -41t121 -123q63 80 152.5 122t193.5 42q111 0 191.5 -32t136 -88 t83 -136t31.5 -176q2 -49 -10 -80t-33.5 -49.5t-50.5 -25.5t-59 -7h-588q2 -115 27.5 -186.5t69.5 -112.5t102.5 -56.5t126.5 -15.5t133 17.5t108 39.5q25 14 39 -10l43 -86q14 -31 -10 -41q-76 -45 -161 -60.5t-167 -15.5q-96 0 -177 29t-142 76q-98 -57 -220 -81t-221 -24 q-133 0 -210.5 30t-118.5 77t-53.5 104.5t-12.5 110.5zM270 297q0 -86 56.5 -132t167.5 -46q18 0 57 3t86 11t96 23.5t92 40.5q-35 59 -51 131.5t-18 175.5h-234q-41 0 -85 -8.5t-81 -31t-61.5 -62.5t-24.5 -105zM942 647h567q0 53 -12 107.5t-43 97.5t-85 69.5t-138 26.5 q-129 0 -204 -85t-85 -216z" />
<glyph unicode="&#xe7;" horiz-adv-x="978" d="M92 526q0 131 34 236.5t96.5 180.5t152.5 115t203 40q82 0 156.5 -16.5t144.5 -55.5q29 -16 12 -43l-43 -84q-6 -12 -13.5 -17t-25.5 5q-49 23 -106.5 37t-122.5 14q-82 0 -140.5 -34t-96.5 -91t-55.5 -131t-17.5 -156t14.5 -153.5t50.5 -125.5t95 -85t152 -31 q70 0 136 18.5t111 40.5q18 10 26.5 5t14.5 -15l41 -86q16 -27 -10 -43q-70 -39 -147.5 -53t-153.5 -18l-31 -93q57 -4 95 -18t62 -35.5t34 -49.5t10 -54q0 -29 -12.5 -58.5t-38 -53.5t-66.5 -39t-96 -15q-51 0 -100 10t-78 25q-23 10 -12 32l14 41q8 16 14 16.5t19 -3.5 q31 -12 62.5 -17.5t60.5 -5.5q106 0 106 70q0 39 -36 55t-83 16h-35t-20 9q-12 6 -11 19t5 28l43 121q-203 16 -308.5 153t-105.5 393z" />
<glyph unicode="&#xe8;" horiz-adv-x="1101" d="M92 532q0 135 36 241t99.5 177.5t149.5 109.5t188 38q117 0 202 -33t139.5 -93.5t81 -143.5t26.5 -183q0 -49 -12.5 -79.5t-34 -48t-49 -25t-58.5 -7.5h-588q0 -96 27 -163.5t71 -109.5t102 -60.5t126 -18.5t133.5 17.5t108.5 39.5q25 14 39 -10l43 -86q14 -29 -13 -41 q-74 -45 -158.5 -60.5t-166.5 -15.5q-115 0 -206 33t-154.5 100.5t-97.5 172t-34 249.5zM279 629h567q0 63 -12.5 121.5t-44 102.5t-86 69.5t-136.5 25.5q-68 0 -120 -26.5t-87.5 -70.5t-56 -101.5t-24.5 -120.5zM330 1539q2 9 18 13l144 37q29 2 38 -20l134 -316 q10 -18 7 -24t-18 -10l-59 -23q-12 -4 -21.5 -2t-19.5 18l-217 308q-8 10 -6 19z" />
<glyph unicode="&#xe9;" horiz-adv-x="1101" d="M92 532q0 135 36 241t99.5 177.5t149.5 109.5t188 38q117 0 202 -33t139.5 -93.5t81 -143.5t26.5 -183q0 -49 -12.5 -79.5t-34 -48t-49 -25t-58.5 -7.5h-588q0 -96 27 -163.5t71 -109.5t102 -60.5t126 -18.5t133.5 17.5t108.5 39.5q25 14 39 -10l43 -86q14 -29 -13 -41 q-74 -45 -158.5 -60.5t-166.5 -15.5q-115 0 -206 33t-154.5 100.5t-97.5 172t-34 249.5zM279 629h567q0 63 -12.5 121.5t-44 102.5t-86 69.5t-136.5 25.5q-68 0 -120 -26.5t-87.5 -70.5t-56 -101.5t-24.5 -120.5zM462 1229q-3 6 7 24l135 316q4 10 12.5 16t26.5 4l141 -37 q16 -4 18.5 -13t-5.5 -19l-217 -308q-10 -16 -18.5 -18t-24.5 2l-58 23q-14 4 -17 10z" />
<glyph unicode="&#xea;" horiz-adv-x="1101" d="M92 532q0 135 36 241t99.5 177.5t149.5 109.5t188 38q117 0 202 -33t139.5 -93.5t81 -143.5t26.5 -183q0 -49 -12.5 -79.5t-34 -48t-49 -25t-58.5 -7.5h-588q0 -96 27 -163.5t71 -109.5t102 -60.5t126 -18.5t133.5 17.5t108.5 39.5q25 14 39 -10l43 -86q14 -29 -13 -41 q-74 -45 -158.5 -60.5t-166.5 -15.5q-115 0 -206 33t-154.5 100.5t-97.5 172t-34 249.5zM229 1260l265 266q39 37 77 37q27 0 45.5 -7.5t40.5 -29.5l252 -262q14 -16 13.5 -25.5t-11.5 -19.5l-34 -31q-18 -12 -41 4l-265 192l-262 -196q-23 -16 -41 4l-37 39q-16 12 -2 29z M279 629h567q0 63 -12.5 121.5t-44 102.5t-86 69.5t-136.5 25.5q-68 0 -120 -26.5t-87.5 -70.5t-56 -101.5t-24.5 -120.5z" />
<glyph unicode="&#xeb;" horiz-adv-x="1101" d="M92 532q0 135 36 241t99.5 177.5t149.5 109.5t188 38q117 0 202 -33t139.5 -93.5t81 -143.5t26.5 -183q0 -49 -12.5 -79.5t-34 -48t-49 -25t-58.5 -7.5h-588q0 -96 27 -163.5t71 -109.5t102 -60.5t126 -18.5t133.5 17.5t108.5 39.5q25 14 39 -10l43 -86q14 -29 -13 -41 q-74 -45 -158.5 -60.5t-166.5 -15.5q-115 0 -206 33t-154.5 100.5t-97.5 172t-34 249.5zM276 1372q0 41 35 75t78 34q41 0 76 -34t35 -75q0 -43 -35 -76.5t-76 -33.5q-43 0 -78 33.5t-35 76.5zM279 629h567q0 63 -12.5 121.5t-44 102.5t-86 69.5t-136.5 25.5 q-68 0 -120 -26.5t-87.5 -70.5t-56 -101.5t-24.5 -120.5zM647 1372q0 41 34 75t77 34t77.5 -33t34.5 -76t-34.5 -76.5t-75.5 -33.5q-45 0 -79 33.5t-34 76.5z" />
<glyph unicode="&#xec;" horiz-adv-x="546" d="M23 1539q2 9 18 13l143 37q29 2 39 -20l133 -316q10 -18 7 -24t-17 -10l-59 -23q-12 -4 -21.5 -2t-19.5 18l-217 308q-8 10 -6 19zM184 31v1013q0 20 8.5 25.5t24.5 5.5h113q16 0 24 -5t8 -26v-1013q0 -20 -8 -25.5t-24 -5.5h-113q-16 0 -24.5 5t-8.5 26z" />
<glyph unicode="&#xed;" horiz-adv-x="546" d="M184 31v1013q0 20 8.5 25.5t24.5 5.5h113q16 0 24 -5t8 -26v-1013q0 -20 -8 -25.5t-24 -5.5h-113q-16 0 -24.5 5t-8.5 26zM204 1229q-3 6 7 24l135 316q4 10 12.5 16t26.5 4l141 -37q16 -4 18.5 -13t-5.5 -19l-217 -308q-10 -16 -18.5 -18t-24.5 2l-58 23q-14 4 -17 10z " />
<glyph unicode="&#xee;" horiz-adv-x="546" d="M-63 1257l264 267q39 37 78 37q27 0 45 -7.5t41 -29.5l251 -262q14 -16 13.5 -25.5t-11.5 -19.5l-34 -31q-18 -12 -41 4l-264 192l-263 -196q-23 -16 -41 4l-36 39q-16 12 -2 28zM184 31v1013q0 20 8.5 25.5t24.5 5.5h113q16 0 24 -5t8 -26v-1013q0 -20 -8 -25.5 t-24 -5.5h-113q-16 0 -24.5 5t-8.5 26z" />
<glyph unicode="&#xef;" horiz-adv-x="546" d="M-20 1372q0 41 34.5 75t77.5 34q41 0 76 -34t35 -75q0 -43 -35 -76.5t-76 -33.5q-43 0 -77.5 33.5t-34.5 76.5zM184 31v1013q0 20 8.5 25.5t24.5 5.5h113q16 0 24 -5t8 -26v-1013q0 -20 -8 -25.5t-24 -5.5h-113q-16 0 -24.5 5t-8.5 26zM350 1372q0 41 34 75t77 34 t77.5 -33t34.5 -76t-34.5 -76.5t-75.5 -33.5q-45 0 -79 33.5t-34 76.5z" />
<glyph unicode="&#xf0;" horiz-adv-x="1122" d="M92 475q0 86 25.5 175t82 162t144.5 118t211 45q59 0 121.5 -12.5t122.5 -36.5l8 6q-27 78 -71 151.5t-101 130.5l-125 -110q-14 -12 -23.5 -9t-19.5 15l-25 25q-10 10 -13 20t11 23l121 104q-41 35 -87 65.5t-95 59.5q-23 12 -18.5 23.5t8.5 19.5l28 45q16 29 31.5 27 t26.5 -6q117 -57 217 -136l139 117q12 14 21.5 11t21.5 -17l20 -25q12 -14 15.5 -21t-10.5 -20l-134 -114q141 -139 213 -326.5t72 -394.5q0 -92 -17.5 -198.5t-69.5 -198t-145 -150.5t-247 -59q-139 0 -228.5 44t-140.5 114.5t-70.5 158.5t-19.5 174zM270 483 q0 -55 8.5 -117.5t38 -115.5t85 -88t149.5 -35t153.5 37t94.5 96t48 133t13 148q0 61 -5 116.5t-15 92.5q-76 49 -147 64t-120 15q-86 0 -144 -31.5t-94 -81.5t-50.5 -111.5t-14.5 -121.5z" />
<glyph unicode="&#xf1;" horiz-adv-x="1150" d="M133 31v893q0 70 27.5 107.5t101.5 47.5q23 4 56.5 7.5t70.5 6.5t72 4t59 1q131 0 225.5 -29t155 -91.5t89 -160.5t28.5 -237v-549q0 -20 -7 -25.5t-26 -5.5h-113q-16 0 -24 5t-8 26v542q0 92 -15.5 161t-53.5 115t-102.5 68.5t-162.5 22.5q-23 0 -76 -3t-119 -13v-893 q0 -20 -8 -25.5t-24 -5.5h-113q-16 0 -24.5 5t-8.5 26zM177.5 1321q-5.5 6 2.5 20q35 61 88.5 102.5t126.5 41.5q35 0 69 -11.5t65.5 -24.5t60 -24.5t57.5 -11.5q33 0 57.5 16.5t36.5 43.5q8 16 13.5 18t21.5 -2l78 -31q16 -4 22.5 -10t0.5 -21q-35 -74 -84 -113.5 t-127 -39.5q-37 0 -71 11t-66.5 24.5t-64.5 25t-65 11.5q-29 0 -52 -16.5t-40 -41.5q-6 -10 -14 -14t-25 4l-69 31q-16 6 -21.5 12z" />
<glyph unicode="&#xf2;" horiz-adv-x="1140" d="M92 537q0 135 36 239.5t100.5 176t152.5 108.5t190 37q233 0 355.5 -147.5t122.5 -407.5q0 -274 -124 -420t-360 -146q-231 0 -352 141.5t-121 418.5zM270 543q0 -92 14.5 -169t49.5 -131.5t91 -85t142 -30.5t144.5 35t93.5 92t49 131t14 152q0 80 -12 154.5t-45 131 t-90 91t-148 34.5q-78 0 -135 -32.5t-94 -88t-55.5 -129t-18.5 -155.5zM338 1539q2 9 18 13l144 37q29 2 39 -20l133 -316q10 -18 7 -24t-17 -10l-60 -23q-12 -4 -21.5 -2t-19.5 18l-217 308q-8 10 -6 19z" />
<glyph unicode="&#xf3;" horiz-adv-x="1140" d="M92 537q0 135 36 239.5t100.5 176t152.5 108.5t190 37q233 0 355.5 -147.5t122.5 -407.5q0 -274 -124 -420t-360 -146q-231 0 -352 141.5t-121 418.5zM270 543q0 -92 14.5 -169t49.5 -131.5t91 -85t142 -30.5t144.5 35t93.5 92t49 131t14 152q0 80 -12 154.5t-45 131 t-90 91t-148 34.5q-78 0 -135 -32.5t-94 -88t-55.5 -129t-18.5 -155.5zM478.5 1229q-3.5 6 6.5 24l136 316q4 10 12 16t26 4l142 -37q16 -4 18 -13t-6 -19l-217 -308q-10 -16 -18.5 -18t-24.5 2l-57 23q-14 4 -17.5 10z" />
<glyph unicode="&#xf4;" horiz-adv-x="1140" d="M92 537q0 135 36 239.5t100.5 176t152.5 108.5t190 37q233 0 355.5 -147.5t122.5 -407.5q0 -274 -124 -420t-360 -146q-231 0 -352 141.5t-121 418.5zM238 1260l264 266q39 37 78 37q27 0 45 -7.5t41 -29.5l252 -262q14 -16 13 -25.5t-11 -19.5l-35 -31q-18 -12 -41 4 l-264 192l-263 -196q-23 -16 -41 4l-36 39q-16 12 -2 29zM270 543q0 -92 14.5 -169t49.5 -131.5t91 -85t142 -30.5t144.5 35t93.5 92t49 131t14 152q0 80 -12 154.5t-45 131t-90 91t-148 34.5q-78 0 -135 -32.5t-94 -88t-55.5 -129t-18.5 -155.5z" />
<glyph unicode="&#xf5;" horiz-adv-x="1140" d="M92 537q0 135 36 239.5t100.5 176t152.5 108.5t190 37q233 0 355.5 -147.5t122.5 -407.5q0 -274 -124 -420t-360 -146q-231 0 -352 141.5t-121 418.5zM226.5 1319q-5.5 6 2.5 20q35 61 88.5 102.5t126.5 41.5q35 0 69 -11.5t65.5 -24.5t60.5 -24.5t57 -11.5 q33 0 57.5 16.5t37.5 42.5q8 16 13 18.5t21 -1.5l78 -31q16 -4 22.5 -10t0.5 -21q-35 -74 -84 -113.5t-127 -39.5q-37 0 -71 11t-66.5 24.5t-64.5 24.5t-64 11q-29 0 -52.5 -16t-40.5 -41q-6 -10 -14 -14t-25 4l-69 31q-16 6 -21.5 12zM270 543q0 -92 14.5 -169t49.5 -131.5 t91 -85t142 -30.5t144.5 35t93.5 92t49 131t14 152q0 80 -12 154.5t-45 131t-90 91t-148 34.5q-78 0 -135 -32.5t-94 -88t-55.5 -129t-18.5 -155.5z" />
<glyph unicode="&#xf6;" horiz-adv-x="1140" d="M92 537q0 135 36 239.5t100.5 176t152.5 108.5t190 37q233 0 355.5 -147.5t122.5 -407.5q0 -274 -124 -420t-360 -146q-231 0 -352 141.5t-121 418.5zM270 543q0 -92 14.5 -169t49.5 -131.5t91 -85t142 -30.5t144.5 35t93.5 92t49 131t14 152q0 80 -12 154.5t-45 131 t-90 91t-148 34.5q-78 0 -135 -32.5t-94 -88t-55.5 -129t-18.5 -155.5zM270 1372q0 41 35 75t78 34q41 0 76 -34t35 -75q0 -43 -35 -76.5t-76 -33.5q-43 0 -78 33.5t-35 76.5zM641 1372q0 41 34 75t77 34t77.5 -33t34.5 -76t-34.5 -76.5t-75.5 -33.5q-45 0 -79 33.5 t-34 76.5z" />
<glyph unicode="&#xf7;" d="M106 651v107q0 16 5.5 25.5t25.5 9.5h934q18 0 23.5 -9.5t5.5 -25.5v-107q0 -18 -5 -25.5t-24 -7.5h-934q-20 0 -25.5 7.5t-5.5 25.5zM465 311q0 61 41 104.5t102 43.5q63 0 104.5 -41.5t41.5 -104.5q0 -61 -42 -102t-104 -41q-61 0 -102 41t-41 100zM465 1079 q0 59 41 101.5t102 42.5q63 0 104.5 -41.5t41.5 -102.5t-42 -103t-104 -42q-61 0 -102 41t-41 104z" />
<glyph unicode="&#xf8;" horiz-adv-x="1140" d="M92 537q0 135 36 239.5t100.5 176t152.5 108.5t190 37q199 0 322 -113l80 92q10 10 16 9t17 -7l34 -32q16 -10 0 -29l-88 -103q96 -143 97 -372q0 -274 -124 -420t-360 -146q-102 0 -183 28t-138 83l-72 -82q-16 -18 -31 -2l-35 31q-20 14 0 33l76 90q-90 135 -90 379z M270 543q0 -70 8.5 -131.5t28.5 -110.5l477 559q-35 41 -86 64.5t-125 23.5q-78 0 -135 -32.5t-94 -88t-55.5 -129t-18.5 -155.5zM352 215q72 -88 215 -88q86 0 144.5 35t93.5 92t49 131t14 152q0 66 -8 126t-29 113z" />
<glyph unicode="&#xf9;" horiz-adv-x="1134" d="M133 489v558q0 20 8.5 25t24.5 5h113q16 0 24 -5t8 -25v-547q0 -92 12.5 -161t46 -114t96 -66.5t163.5 -21.5q23 0 75 3t119 14v893q0 20 7.5 25t25.5 5h113q16 0 24 -5t8 -25v-895q0 -131 -129 -156q-29 -4 -63.5 -7t-69 -5t-67.5 -3t-58 -1q-133 0 -224 27.5t-148.5 88 t-83 157.5t-25.5 236zM332 1539q2 9 18 13l144 37q29 2 38 -20l134 -316q10 -18 7 -24t-18 -10l-59 -23q-12 -4 -21.5 -2t-19.5 18l-217 308q-8 10 -6 19z" />
<glyph unicode="&#xfa;" horiz-adv-x="1134" d="M133 489v558q0 20 8.5 25t24.5 5h113q16 0 24 -5t8 -25v-547q0 -92 12.5 -161t46 -114t96 -66.5t163.5 -21.5q23 0 75 3t119 14v893q0 20 7.5 25t25.5 5h113q16 0 24 -5t8 -25v-895q0 -131 -129 -156q-29 -4 -63.5 -7t-69 -5t-67.5 -3t-58 -1q-133 0 -224 27.5t-148.5 88 t-83 157.5t-25.5 236zM488.5 1229q-3.5 6 7.5 24l135 316q4 10 12 16t27 4l141 -37q16 -4 18 -13t-6 -19l-217 -308q-10 -16 -18 -18t-25 2l-57 23q-14 4 -17.5 10z" />
<glyph unicode="&#xfb;" horiz-adv-x="1134" d="M133 489v558q0 20 8.5 25t24.5 5h113q16 0 24 -5t8 -25v-547q0 -92 12.5 -161t46 -114t96 -66.5t163.5 -21.5q23 0 75 3t119 14v893q0 20 7.5 25t25.5 5h113q16 0 24 -5t8 -25v-895q0 -131 -129 -156q-29 -4 -63.5 -7t-69 -5t-67.5 -3t-58 -1q-133 0 -224 27.5t-148.5 88 t-83 157.5t-25.5 236zM242 1260l264 266q39 37 78 37q27 0 45 -7.5t41 -29.5l252 -262q14 -16 13 -25.5t-11 -19.5l-35 -31q-18 -12 -41 4l-264 192l-262 -196q-23 -16 -41 4l-37 39q-16 12 -2 29z" />
<glyph unicode="&#xfc;" horiz-adv-x="1134" d="M133 489v558q0 20 8.5 25t24.5 5h113q16 0 24 -5t8 -25v-547q0 -92 12.5 -161t46 -114t96 -66.5t163.5 -21.5q23 0 75 3t119 14v893q0 20 7.5 25t25.5 5h113q16 0 24 -5t8 -25v-895q0 -131 -129 -156q-29 -4 -63.5 -7t-69 -5t-67.5 -3t-58 -1q-133 0 -224 27.5t-148.5 88 t-83 157.5t-25.5 236zM285 1372q0 41 34.5 75t77.5 34q41 0 76 -34t35 -75q0 -43 -35 -76.5t-76 -33.5q-43 0 -77.5 33.5t-34.5 76.5zM655 1372q0 41 34 75t77 34t78 -33t35 -76t-35 -76.5t-76 -33.5q-45 0 -79 33.5t-34 76.5z" />
<glyph unicode="&#xfd;" horiz-adv-x="1003" d="M23 1053q-6 23 18 22h137q23 0 29 -20q4 -14 17.5 -56.5t31.5 -98.5t38.5 -120.5t39 -121t32 -99.5t17.5 -55l104 -361h13q6 16 24.5 73.5t38 122t36.5 117t19 56.5t13.5 38t29 85t38 111.5t40 120t37 109.5t27.5 79q6 20 28 20h132q25 0 18 -22l-414 -1229 q-47 -141 -120.5 -196.5t-188.5 -55.5q-29 0 -72 4t-94 18q-33 8 -24 33l22 90q4 16 12.5 19.5t22.5 -0.5q39 -10 58.5 -13.5t45.5 -3.5q70 0 113 28t70 110q2 6 10 28.5t17.5 48t16.5 48t9 28.5h-39q-29 0 -50.5 9.5t-37.5 62.5zM443.5 1229q-3.5 6 7.5 24l135 316 q4 10 12 16t27 4l141 -37q16 -4 18 -13t-6 -19l-217 -308q-10 -16 -18 -18t-25 2l-57 23q-14 4 -17.5 10z" />
<glyph unicode="&#xfe;" horiz-adv-x="1144" d="M133 -385v1853q0 18 8.5 23.5t24.5 5.5h115q16 0 24 -5t8 -24v-397q66 16 132.5 21.5t129.5 5.5q123 0 213.5 -42t148.5 -117t87 -177t29 -223q0 -117 -30 -218.5t-88 -178t-148.5 -121t-208.5 -44.5q-57 0 -124 6.5t-143 28.5v-397q0 -18 -7 -23.5t-23 -5.5h-115 q-16 0 -24.5 5.5t-8.5 23.5zM311 168q78 -23 134.5 -30t103.5 -7q70 0 128 21.5t100 69.5t65.5 126t23.5 191t-22.5 190.5t-64.5 124.5t-100 68.5t-132 21.5q-53 0 -120 -10t-114 -29v-83v-139v-165v-160.5t-1 -127t-1 -62.5z" />
<glyph unicode="&#xff;" horiz-adv-x="1003" d="M23 1053q-6 23 18 22h137q23 0 29 -20q4 -14 17.5 -56.5t31.5 -98.5t38.5 -120.5t39 -121t32 -99.5t17.5 -55l104 -361h13q6 16 24.5 73.5t38 122t36.5 117t19 56.5t13.5 38t29 85t38 111.5t40 120t37 109.5t27.5 79q6 20 28 20h132q25 0 18 -22l-414 -1229 q-47 -141 -120.5 -196.5t-188.5 -55.5q-29 0 -72 4t-94 18q-33 8 -24 33l22 90q4 16 12.5 19.5t22.5 -0.5q39 -10 58.5 -13.5t45.5 -3.5q70 0 113 28t70 110q2 6 10 28.5t17.5 48t16.5 48t9 28.5h-39q-29 0 -50.5 9.5t-37.5 62.5zM203 1372q0 41 34.5 75t77.5 34 q41 0 76 -34t35 -75q0 -43 -35 -76.5t-76 -33.5q-43 0 -77.5 33.5t-34.5 76.5zM573 1372q0 41 34 75t77 34t78 -33t35 -76t-35 -76.5t-76 -33.5q-45 0 -79 33.5t-34 76.5z" />
<glyph unicode="&#x100;" horiz-adv-x="1265" d="M33 39l463 1317q16 49 36.5 64.5t67.5 17.5h62q55 0 74.5 -18.5t35.5 -63.5l461 -1317q6 -14 1 -26.5t-26 -12.5h-135q-18 0 -29.5 4t-19.5 27l-102 301h-578l-102 -301q-10 -31 -43 -31h-140q-20 0 -25 11.5t-1 27.5zM354 1618v78q0 16 5.5 24.5t25.5 8.5h492 q20 0 25 -8.5t5 -24.5v-78q0 -16 -5 -24.5t-25 -8.5h-492q-20 0 -25.5 8.5t-5.5 24.5zM393 498h475l-137 428l-96 301h-10l-93 -291z" />
<glyph unicode="&#x101;" horiz-adv-x="1101" d="M92 317q0 70 23.5 136.5t77 117t138.5 81t208 30.5h249v45q0 49 -9 88t-35.5 67.5t-74.5 44t-124 15.5q-72 0 -153 -12t-132 -29q-16 -6 -26.5 -4t-14.5 18l-24 89q-4 10 -1 19t19 15q78 33 178.5 46.5t183.5 13.5q205 0 299.5 -91.5t94.5 -265.5v-641q0 -41 -31 -53 q-92 -41 -199.5 -55.5t-206.5 -14.5q-133 0 -218 28t-134 75t-68.5 108.5t-19.5 128.5zM270 317q0 -55 20.5 -93t55.5 -59.5t82 -30.5t102 -9q18 0 48 1t66 6t73 12.5t69 19.5v364h-237q-37 0 -85 -5t-91 -26.5t-73 -63.5t-30 -116zM291 1313v78q0 16 5 24t26 8h491 q20 0 25.5 -8t5.5 -24v-78q0 -16 -5 -24.5t-26 -8.5h-491q-20 0 -25.5 8t-5.5 25z" />
<glyph unicode="&#x102;" horiz-adv-x="1265" d="M33 39l463 1317q16 49 36.5 64.5t67.5 17.5h62q55 0 74.5 -18.5t35.5 -63.5l461 -1317q6 -14 1 -26.5t-26 -12.5h-135q-18 0 -29.5 4t-19.5 27l-102 301h-578l-102 -301q-10 -31 -43 -31h-140q-20 0 -25 11.5t-1 27.5zM284 1755q-3 10 13 23l39 34q18 10 24.5 7.5 t20.5 -15.5q59 -66 123.5 -102.5t124.5 -36.5q45 0 104.5 27.5t143.5 117.5q16 14 22 13.5t16 -6.5l41 -33q16 -16 13.5 -26.5t-6.5 -16.5q-86 -117 -175 -167t-167 -50q-102 0 -186.5 63.5t-143.5 151.5q-4 6 -7 16zM393 498h475l-137 428l-96 301h-10l-93 -291z" />
<glyph unicode="&#x103;" horiz-adv-x="1101" d="M92 317q0 70 23.5 136.5t77 117t138.5 81t208 30.5h249v45q0 49 -9 88t-35.5 67.5t-74.5 44t-124 15.5q-72 0 -153 -12t-132 -29q-16 -6 -26.5 -4t-14.5 18l-24 89q-4 10 -1 19t19 15q78 33 178.5 46.5t183.5 13.5q205 0 299.5 -91.5t94.5 -265.5v-641q0 -41 -31 -53 q-92 -41 -199.5 -55.5t-206.5 -14.5q-133 0 -218 28t-134 75t-68.5 108.5t-19.5 128.5zM243 1443.5q-3 10.5 13 22.5l39 35q18 10 24.5 7t20.5 -15q59 -66 123.5 -102.5t124.5 -36.5q45 0 104.5 27.5t143.5 117.5q16 14 22 13t16 -7l41 -32q16 -16 13.5 -26.5t-6.5 -16.5 q-86 -117 -175 -167.5t-167 -50.5q-102 0 -186.5 63.5t-143.5 151.5q-4 6 -7 16.5zM270 317q0 -55 20.5 -93t55.5 -59.5t82 -30.5t102 -9q18 0 48 1t66 6t73 12.5t69 19.5v364h-237q-37 0 -85 -5t-91 -26.5t-73 -63.5t-30 -116z" />
<glyph unicode="&#x104;" horiz-adv-x="1265" d="M33 39l463 1317q16 49 36.5 64.5t67.5 17.5h62q55 0 74.5 -18.5t35.5 -63.5l461 -1317q6 -14 1 -26.5t-26 -12.5h-82q-61 -66 -97 -133.5t-36 -118.5q0 -41 27 -57.5t80 -16.5q16 0 46 5.5t58 13.5q14 4 20.5 3t10.5 -15l14 -39q4 -14 0 -21.5t-12 -11.5 q-29 -14 -83 -27.5t-110 -13.5q-104 0 -148 44t-44 105q0 39 13.5 82t38 82t57 72.5t69.5 56.5l2 2q-2 4 -4 8.5t-4 10.5l-102 301h-578l-102 -301q-10 -31 -43 -31h-140q-20 0 -25 11.5t-1 27.5zM393 498h475l-137 428l-96 301h-10l-93 -291z" />
<glyph unicode="&#x105;" horiz-adv-x="1101" d="M92 317q0 70 23.5 136.5t77 117t138.5 81t208 30.5h249v45q0 49 -9 88t-35.5 67.5t-74.5 44t-124 15.5q-72 0 -153 -12t-132 -29q-16 -6 -26.5 -4t-14.5 18l-24 89q-4 10 -1 19t19 15q78 33 178.5 46.5t183.5 13.5q205 0 299.5 -91.5t94.5 -265.5v-641q0 -37 -23 -49 q-61 -66 -97 -133.5t-36 -118.5q0 -41 26.5 -57t80.5 -16q16 0 45.5 5t58.5 13q14 4 20.5 3t10.5 -15l14 -39q4 -14 0 -21.5t-12 -11.5q-29 -14 -83 -27.5t-110 -13.5q-104 0 -148 44t-44 106q-2 59 25.5 120.5t74.5 110.5q-59 -12 -121.5 -17.5t-118.5 -5.5q-133 0 -218 28 t-134 75t-68.5 108.5t-19.5 128.5zM270 317q0 -55 20.5 -93t55.5 -59.5t82 -30.5t102 -9q18 0 48 1t66 6t73 12.5t69 19.5v364h-237q-37 0 -85 -5t-91 -26.5t-73 -63.5t-30 -116z" />
<glyph unicode="&#x106;" horiz-adv-x="1224" d="M113 696q0 172 45 312.5t127 240t197.5 152.5t254.5 53q88 0 182.5 -15.5t198.5 -68.5q12 -6 16.5 -16.5t-6.5 -30.5l-47 -94q-6 -12 -13 -17.5t-24 2.5q-143 63 -299 64q-117 0 -199.5 -49t-137 -130t-79 -186.5t-24.5 -216.5q0 -113 21.5 -211t74 -171.5t139.5 -116.5 t216 -43q90 0 172 20.5t153 52.5q23 10 33 2t14 -18l39 -86q12 -25 8 -34t-18 -19q-49 -29 -105.5 -47.5t-112.5 -28.5t-111.5 -14.5t-104.5 -4.5q-143 0 -257 43t-191.5 131.5t-119.5 223.5t-42 321zM585 1610.5q1 7.5 15 17.5l287 207q10 8 21.5 11t21.5 -13l86 -117 q16 -23 -4 -33l-346 -157q-18 -8 -24.5 -4t-14.5 14l-35 55q-8 12 -7 19.5z" />
<glyph unicode="&#x107;" horiz-adv-x="978" d="M92 526q0 131 34 236.5t96.5 180.5t152.5 115t203 40q82 0 156.5 -16.5t144.5 -55.5q29 -16 12 -43l-43 -84q-6 -12 -13.5 -17t-25.5 5q-49 23 -106.5 37t-122.5 14q-82 0 -140.5 -34t-96.5 -91t-55.5 -131t-17.5 -156t14.5 -153.5t50.5 -125.5t95.5 -85t151.5 -31 q70 0 136 18.5t111 40.5q18 10 26.5 5t14.5 -15l41 -86q16 -27 -10 -43q-78 -43 -170 -58.5t-176 -15.5q-225 0 -344 138.5t-119 410.5zM462 1229q-3 6 7 24l135 316q4 10 12.5 16t26.5 4l141 -37q16 -4 18.5 -13t-5.5 -19l-217 -308q-10 -16 -18.5 -18t-24.5 2l-58 23 q-14 4 -17 10z" />
<glyph unicode="&#x108;" horiz-adv-x="1224" d="M113 696q0 172 45 312.5t127 240t197.5 152.5t254.5 53q88 0 182.5 -15.5t198.5 -68.5q12 -6 16.5 -16.5t-6.5 -30.5l-47 -94q-6 -12 -13 -17.5t-24 2.5q-143 63 -299 64q-117 0 -199.5 -49t-137 -130t-79 -186.5t-24.5 -216.5q0 -113 21.5 -211t74 -171.5t139.5 -116.5 t216 -43q90 0 172 20.5t153 52.5q23 10 33 2t14 -18l39 -86q12 -25 8 -34t-18 -19q-49 -29 -105.5 -47.5t-112.5 -28.5t-111.5 -14.5t-104.5 -4.5q-143 0 -257 43t-191.5 131.5t-119.5 223.5t-42 321zM387 1569q-14 18 0 30l254 205q43 35 80 35q16 0 36.5 -5t49.5 -30 l244 -205q20 -18 4 -38l-29 -35q-8 -10 -17.5 -7t-25.5 11l-264 133l-262 -137q-12 -6 -19.5 -5t-17.5 11z" />
<glyph unicode="&#x109;" horiz-adv-x="978" d="M92 526q0 131 34 236.5t96.5 180.5t152.5 115t203 40q82 0 156.5 -16.5t144.5 -55.5q29 -16 12 -43l-43 -84q-6 -12 -13.5 -17t-25.5 5q-49 23 -106.5 37t-122.5 14q-82 0 -140.5 -34t-96.5 -91t-55.5 -131t-17.5 -156t14.5 -153.5t50.5 -125.5t95.5 -85t151.5 -31 q70 0 136 18.5t111 40.5q18 10 26.5 5t14.5 -15l41 -86q16 -27 -10 -43q-78 -43 -170 -58.5t-176 -15.5q-225 0 -344 138.5t-119 410.5zM221 1266l264 266q39 37 78 37q27 0 45.5 -7.5t40.5 -29.5l252 -262q14 -16 13 -25.5t-11 -19.5l-35 -31q-18 -12 -41 4l-264 193 l-262 -197q-23 -16 -41 4l-37 39q-16 12 -2 29z" />
<glyph unicode="&#x10a;" horiz-adv-x="1224" d="M113 696q0 172 45 312.5t127 240t197.5 152.5t254.5 53q88 0 182.5 -15.5t198.5 -68.5q12 -6 16.5 -16.5t-6.5 -30.5l-47 -94q-6 -12 -13 -17.5t-24 2.5q-143 63 -299 64q-117 0 -199.5 -49t-137 -130t-79 -186.5t-24.5 -216.5q0 -113 21.5 -211t74 -171.5t139.5 -116.5 t216 -43q90 0 172 20.5t153 52.5q23 10 33 2t14 -18l39 -86q12 -25 8 -34t-18 -19q-49 -29 -105.5 -47.5t-112.5 -28.5t-111.5 -14.5t-104.5 -4.5q-143 0 -257 43t-191.5 131.5t-119.5 223.5t-42 321zM612 1663q0 47 36 82t83 35t81 -35t34 -82t-34 -81t-81 -34t-83 34 t-36 81z" />
<glyph unicode="&#x10b;" horiz-adv-x="978" d="M92 526q0 131 34 236.5t96.5 180.5t152.5 115t203 40q82 0 156.5 -16.5t144.5 -55.5q29 -16 12 -43l-43 -84q-6 -12 -13.5 -17t-25.5 5q-49 23 -106.5 37t-122.5 14q-82 0 -140.5 -34t-96.5 -91t-55.5 -131t-17.5 -156t14.5 -153.5t50.5 -125.5t95.5 -85t151.5 -31 q70 0 136 18.5t111 40.5q18 10 26.5 5t14.5 -15l41 -86q16 -27 -10 -43q-78 -43 -170 -58.5t-176 -15.5q-225 0 -344 138.5t-119 410.5zM455 1374q0 47 35.5 82t82.5 35t81 -35t34 -82t-33.5 -80.5t-81.5 -33.5q-47 0 -82.5 33.5t-35.5 80.5z" />
<glyph unicode="&#x10c;" horiz-adv-x="1224" d="M113 696q0 172 45 312.5t127 240t197.5 152.5t254.5 53q88 0 182.5 -15.5t198.5 -68.5q12 -6 16.5 -16.5t-6.5 -30.5l-47 -94q-6 -12 -13 -17.5t-24 2.5q-143 63 -299 64q-117 0 -199.5 -49t-137 -130t-79 -186.5t-24.5 -216.5q0 -113 21.5 -211t74 -171.5t139.5 -116.5 t216 -43q90 0 172 20.5t153 52.5q23 10 33 2t14 -18l39 -86q12 -25 8 -34t-18 -19q-49 -29 -105.5 -47.5t-112.5 -28.5t-111.5 -14.5t-104.5 -4.5q-143 0 -257 43t-191.5 131.5t-119.5 223.5t-42 321zM374 1772.5q3 5.5 7 13.5l33 47q8 12 14 12t18 -6l275 -143l268 141 q16 8 22.5 8t14.5 -8l37 -41q10 -10 11 -19.5t-15 -21.5l-252 -201q-27 -20 -48.5 -26t-37.5 -6t-35.5 8t-42.5 24l-264 205q-8 8 -5 13.5z" />
<glyph unicode="&#x10d;" horiz-adv-x="978" d="M92 526q0 131 34 236.5t96.5 180.5t152.5 115t203 40q82 0 156.5 -16.5t144.5 -55.5q29 -16 12 -43l-43 -84q-6 -12 -13.5 -17t-25.5 5q-49 23 -106.5 37t-122.5 14q-82 0 -140.5 -34t-96.5 -91t-55.5 -131t-17.5 -156t14.5 -153.5t50.5 -125.5t95.5 -85t151.5 -31 q70 0 136 18.5t111 40.5q18 10 26.5 5t14.5 -15l41 -86q16 -27 -10 -43q-78 -43 -170 -58.5t-176 -15.5q-225 0 -344 138.5t-119 410.5zM215 1491q-14 16 2 29l39 36q18 16 41 5l260 -195l264 193q23 16 41 4l35 -31q10 -10 11 -19.5t-13 -25.5l-252 -262q-23 -23 -41 -30 t-45 -7q-39 0 -78 37z" />
<glyph unicode="&#x10e;" horiz-adv-x="1382" d="M154 102v1229q0 53 22.5 79t81.5 26l369 2q160 0 279.5 -49.5t200.5 -142.5t122 -225t41 -294t-38 -295t-115 -229.5t-193.5 -149.5t-276.5 -53h-389q-55 0 -79.5 24.5t-24.5 77.5zM269 1772.5q3 5.5 7 13.5l33 47q8 12 14.5 12t18.5 -6l274 -143l269 141q16 8 22 8 t15 -8l36 -41q10 -10 11.5 -19.5t-15.5 -21.5l-252 -201q-27 -20 -48 -26t-38 -6q-16 0 -35.5 8t-41.5 24l-265 205q-8 8 -5 13.5zM344 172h281q129 0 216 41t139 114.5t74.5 175t22.5 220.5q0 113 -22.5 211t-76.5 172t-142 117t-220 43h-272v-1094z" />
<glyph unicode="&#x10f;" horiz-adv-x="1398" d="M92 520q0 115 29 219.5t90 184.5t154.5 127t222.5 47q47 0 111.5 -5.5t131.5 -25.5v399q0 20 7.5 25.5t25.5 5.5h115q16 0 24.5 -5t8.5 -26v-1378q0 -27 -25 -37q-106 -47 -218 -60.5t-204 -13.5q-129 0 -218 38t-146.5 109t-83 171t-25.5 225zM276 520q0 -109 23 -182.5 t63.5 -119.5t100 -66.5t133.5 -20.5q51 0 119.5 10.5t115.5 26.5v741q-78 23 -131 29t-100 6q-70 0 -129 -24.5t-102 -75.5t-68 -131t-25 -193zM1151 1053l33 368q2 12 8 23.5t27 11.5h155q23 0 33 -6t2 -29l-121 -362q-8 -18 -14 -26.5t-25 -8.5h-69q-20 0 -25.5 7t-3.5 22 z" />
<glyph unicode="&#x110;" horiz-adv-x="1382" d="M18 690v84q0 16 5.5 24.5t25.5 8.5h105v524q0 53 22.5 79t81.5 26l369 2q160 0 279.5 -49.5t200.5 -142.5t122 -225t41 -294t-38 -295t-115 -229.5t-193.5 -149.5t-276.5 -53h-389q-55 0 -79.5 24.5t-24.5 77.5v553h-105q-20 0 -25.5 8.5t-5.5 26.5zM346 172h277 q129 0 216 41t139 114.5t74.5 175t22.5 220.5q0 113 -22.5 211t-76.5 172t-142.5 117t-219.5 43h-268v-459h334q18 0 23.5 -8t5.5 -25v-84q0 -18 -5.5 -26.5t-23.5 -8.5h-334v-483z" />
<glyph unicode="&#x111;" horiz-adv-x="1144" d="M92 516q0 115 29 219.5t90 183t154.5 126t222.5 47.5q47 0 111.5 -6.5t131.5 -24.5v162h-344q-16 0 -20 5t-4 21v56q0 14 4 20t20 6h344v135q0 20 7.5 25.5t25.5 5.5h115q16 0 24.5 -5t8.5 -26v-135h100q16 0 20.5 -6t4.5 -20v-56q0 -16 -4.5 -21t-20.5 -5h-100v-1135 q0 -27 -25 -37q-106 -47 -218 -60.5t-202 -13.5q-129 0 -219 37t-146.5 106.5t-83 170t-26.5 225.5zM276 516q0 -109 23 -182.5t65 -118.5t100 -64.5t132 -19.5q53 0 120.5 10.5t114.5 26.5v735q-78 23 -131 29t-100 6q-70 0 -129 -23.5t-102 -75t-68 -131t-25 -192.5z" />
<glyph unicode="&#x112;" horiz-adv-x="1185" d="M154 350v733q0 70 18 134.5t60 112.5t108 77t160 29h559q23 0 30 -10.5t7 -32.5v-86q0 -23 -7.5 -32t-29.5 -9h-557q-86 0 -124 -38t-38 -118v-266h651q23 0 30 -10.5t7 -32.5v-78q0 -20 -7 -30.5t-30 -10.5h-651v-356q0 -70 37 -112t125 -42h567q25 0 32 -10t7 -33v-86 q0 -23 -7 -33t-32 -10h-569q-100 0 -167 28.5t-107 76t-56 111t-16 134.5zM406 1614v78q0 16 5 24t25 8h492q20 0 25 -8t5 -24v-78q0 -16 -5 -24.5t-25 -8.5h-492q-20 0 -25 8t-5 25z" />
<glyph unicode="&#x113;" horiz-adv-x="1101" d="M92 532q0 135 36 241t99.5 177.5t149.5 109.5t188 38q117 0 202 -33t139.5 -93.5t81 -143.5t26.5 -183q0 -49 -12.5 -79.5t-34 -48t-49 -25t-58.5 -7.5h-588q0 -96 27 -163.5t71 -109.5t102 -60.5t126 -18.5t133.5 17.5t108.5 39.5q25 14 39 -10l43 -86q14 -29 -13 -41 q-74 -45 -158.5 -60.5t-166.5 -15.5q-115 0 -206 33t-154.5 100.5t-97.5 172t-34 249.5zM279 629h567q0 63 -12.5 121.5t-44 102.5t-86 69.5t-136.5 25.5q-68 0 -120 -26.5t-87.5 -70.5t-56 -101.5t-24.5 -120.5zM301 1315v78q0 16 5 24t26 8h491q20 0 25.5 -8t5.5 -24v-78 q0 -16 -5 -24.5t-26 -8.5h-491q-20 0 -25.5 8t-5.5 25z" />
<glyph unicode="&#x114;" horiz-adv-x="1185" d="M154 350v733q0 70 18 134.5t60 112.5t108 77t160 29h559q23 0 30 -10.5t7 -32.5v-86q0 -23 -7.5 -32t-29.5 -9h-557q-86 0 -124 -38t-38 -118v-266h651q23 0 30 -10.5t7 -32.5v-78q0 -20 -7 -30.5t-30 -10.5h-651v-356q0 -70 37 -112t125 -42h567q25 0 32 -10t7 -33v-86 q0 -23 -7 -33t-32 -10h-569q-100 0 -167 28.5t-107 76t-56 111t-16 134.5zM341 1769.5q-3 10.5 13 22.5l39 35q18 10 24.5 7t20.5 -15q59 -66 124 -103t124 -37q45 0 104.5 28t143.5 118q16 14 22.5 13t16.5 -7l41 -33q16 -16 13 -26.5t-7 -16.5q-86 -117 -175 -167 t-167 -50q-102 0 -186 63.5t-144 151.5q-4 6 -7 16.5z" />
<glyph unicode="&#x115;" horiz-adv-x="1101" d="M92 532q0 135 36 241t99.5 177.5t149.5 109.5t188 38q117 0 202 -33t139.5 -93.5t81 -143.5t26.5 -183q0 -49 -12.5 -79.5t-34 -48t-49 -25t-58.5 -7.5h-588q0 -96 27 -163.5t71 -109.5t102 -60.5t126 -18.5t133.5 17.5t108.5 39.5q25 14 39 -10l43 -86q14 -29 -13 -41 q-74 -45 -158.5 -60.5t-166.5 -15.5q-115 0 -206 33t-154.5 100.5t-97.5 172t-34 249.5zM220 1437.5q-3 10.5 13 22.5l39 35q18 10 24.5 7t20.5 -15q59 -66 124 -102.5t124 -36.5q45 0 104.5 27.5t143.5 117.5q16 14 22.5 13t16.5 -7l41 -33q16 -16 13 -26t-7 -17 q-86 -117 -175 -167t-167 -50q-102 0 -186 63.5t-144 151.5q-4 6 -7 16.5zM279 629h567q0 63 -12.5 121.5t-44 102.5t-86 69.5t-136.5 25.5q-68 0 -120 -26.5t-87.5 -70.5t-56 -101.5t-24.5 -120.5z" />
<glyph unicode="&#x116;" horiz-adv-x="1185" d="M154 350v733q0 70 18 134.5t60 112.5t108 77t160 29h559q23 0 30 -10.5t7 -32.5v-86q0 -23 -7.5 -32t-29.5 -9h-557q-86 0 -124 -38t-38 -118v-266h651q23 0 30 -10.5t7 -32.5v-78q0 -20 -7 -30.5t-30 -10.5h-651v-356q0 -70 37 -112t125 -42h567q25 0 32 -10t7 -33v-86 q0 -23 -7 -33t-32 -10h-569q-100 0 -167 28.5t-107 76t-56 111t-16 134.5zM541 1649q0 47 35.5 81.5t82.5 34.5t81 -34.5t34 -81.5t-33.5 -81t-81.5 -34q-47 0 -82.5 34t-35.5 81z" />
<glyph unicode="&#x117;" horiz-adv-x="1101" d="M92 532q0 135 36 241t99.5 177.5t149.5 109.5t188 38q117 0 202 -33t139.5 -93.5t81 -143.5t26.5 -183q0 -49 -12.5 -79.5t-34 -48t-49 -25t-58.5 -7.5h-588q0 -96 27 -163.5t71 -109.5t102 -60.5t126 -18.5t133.5 17.5t108.5 39.5q25 14 39 -10l43 -86q14 -29 -13 -41 q-74 -45 -158.5 -60.5t-166.5 -15.5q-115 0 -206 33t-154.5 100.5t-97.5 172t-34 249.5zM279 629h567q0 63 -12.5 121.5t-44 102.5t-86 69.5t-136.5 25.5q-68 0 -120 -26.5t-87.5 -70.5t-56 -101.5t-24.5 -120.5zM446 1372q0 47 36 82t83 35t81 -35t34 -82t-34 -81t-81 -34 t-83 34t-36 81z" />
<glyph unicode="&#x118;" horiz-adv-x="1185" d="M154 350v733q0 70 18 134.5t60 112.5t108 77t160 29h559q23 0 30 -10.5t7 -32.5v-86q0 -23 -7.5 -32t-29.5 -9h-557q-86 0 -124 -38t-38 -118v-266h651q23 0 30 -10.5t7 -32.5v-78q0 -20 -7 -30.5t-30 -10.5h-651v-356q0 -70 37 -112t125 -42h567q25 0 32 -10t7 -33v-86 q0 -18 -4 -28.5t-21 -14.5q-59 -66 -95 -132.5t-36 -117.5q0 -41 27 -57.5t80 -16.5q16 0 46 5.5t58 13.5q14 4 20.5 3t10.5 -15l14 -39q4 -14 0 -21.5t-12 -11.5q-29 -14 -83 -27.5t-109 -13.5q-104 0 -148.5 44t-44.5 105q0 37 11.5 77t33 77t50 69.5t63.5 57.5h-469 q-100 0 -167 28.5t-107 76t-56 111t-16 134.5z" />
<glyph unicode="&#x119;" horiz-adv-x="1101" d="M92 532q0 135 36 241t99.5 177.5t149.5 109.5t188 38q117 0 202 -33t139.5 -93.5t81 -143.5t26.5 -183q0 -49 -12.5 -79.5t-34 -48t-49 -25t-58.5 -7.5h-588q0 -96 27 -163.5t71 -109.5t102 -60.5t126 -18.5t133.5 17.5t108.5 39.5q25 14 39 -10l43 -86q14 -29 -13 -41 l-12 -8q-57 -63 -91 -127.5t-34 -114.5q0 -41 26.5 -57t80.5 -16q16 0 45.5 5t58.5 13q14 4 20.5 3t10.5 -15l14 -39q4 -14 0 -21.5t-12 -11.5q-29 -14 -83 -27.5t-110 -13.5q-104 0 -148 44t-44 106q-2 53 21.5 110.5t64.5 104.5q-35 -6 -68 -8.5t-65 -2.5q-115 0 -206 33 t-154.5 100.5t-97.5 172t-34 249.5zM279 629h567q0 63 -12.5 121.5t-44 102.5t-86 69.5t-136.5 25.5q-68 0 -120 -26.5t-87.5 -70.5t-56 -101.5t-24.5 -120.5z" />
<glyph unicode="&#x11a;" horiz-adv-x="1185" d="M154 350v733q0 70 18 134.5t60 112.5t108 77t160 29h559q23 0 30 -10.5t7 -32.5v-86q0 -23 -7.5 -32t-29.5 -9h-557q-86 0 -124 -38t-38 -118v-266h651q23 0 30 -10.5t7 -32.5v-78q0 -20 -7 -30.5t-30 -10.5h-651v-356q0 -70 37 -112t125 -42h567q25 0 32 -10t7 -33v-86 q0 -23 -7 -33t-32 -10h-569q-100 0 -167 28.5t-107 76t-56 111t-16 134.5zM325 1772.5q3 5.5 7 13.5l33 47q8 12 14 12t18 -6l275 -143l268 141q16 8 22.5 8t14.5 -8l37 -41q10 -10 11 -19.5t-15 -21.5l-252 -201q-27 -20 -48.5 -26t-37.5 -6t-36 8t-42 24l-264 205 q-8 8 -5 13.5z" />
<glyph unicode="&#x11b;" horiz-adv-x="1101" d="M92 532q0 135 36 241t99.5 177.5t149.5 109.5t188 38q117 0 202 -33t139.5 -93.5t81 -143.5t26.5 -183q0 -49 -12.5 -79.5t-34 -48t-49 -25t-58.5 -7.5h-588q0 -96 27 -163.5t71 -109.5t102 -60.5t126 -18.5t133.5 17.5t108.5 39.5q25 14 39 -10l43 -86q14 -29 -13 -41 q-74 -45 -158.5 -60.5t-166.5 -15.5q-115 0 -206 33t-154.5 100.5t-97.5 172t-34 249.5zM215 1491q-14 16 2 29l39 36q18 16 41 5l260 -195l264 193q23 16 41 4l35 -31q10 -10 11 -19.5t-13 -25.5l-252 -262q-23 -23 -41 -30t-45 -7q-39 0 -78 37zM279 629h567 q0 63 -12.5 121.5t-44 102.5t-86 69.5t-136.5 25.5q-68 0 -120 -26.5t-87.5 -70.5t-56 -101.5t-24.5 -120.5z" />
<glyph unicode="&#x11c;" horiz-adv-x="1335" d="M113 700q0 172 44 311.5t124.5 238t197.5 151.5t262 53q86 0 188.5 -15.5t207.5 -68.5q10 -6 14 -16.5t-6 -30.5l-45 -102q-8 -14 -15.5 -18.5t-23.5 1.5q-68 33 -153 49.5t-163 16.5q-121 0 -204.5 -48t-136 -128t-76 -183.5t-23.5 -214.5q0 -117 20.5 -217t69.5 -174 t134 -116t214 -42q18 0 50 2.5t72 7.5t83 14t82 26v460q-20 4 -41.5 5.5t-42.5 1.5q-72 0 -148.5 -15.5t-150.5 -50.5q-23 -8 -32 -9t-19 15l-39 92q-14 25 14 45q66 43 160 68t189 25q53 0 87.5 -2.5t69.5 -8.5q78 -14 106.5 -50t28.5 -114v-516q0 -43 -32 -61 q-55 -35 -121 -55.5t-128.5 -30.5t-117.5 -14.5t-90 -4.5q-143 0 -256 43t-191.5 132.5t-120.5 225.5t-42 322zM379 1569q-14 18 0 30l254 205q43 35 80 35q16 0 36.5 -5t49.5 -30l243 -205q20 -18 5 -38l-29 -35q-8 -10 -17.5 -7t-25.5 11l-264 133l-262 -137 q-12 -6 -19.5 -5t-17.5 11z" />
<glyph unicode="&#x11d;" horiz-adv-x="1144" d="M92 522q0 125 30 230.5t90 181.5t154.5 119t223.5 43q98 0 202.5 -14.5t196.5 -53.5q25 -10 25 -39v-905q0 -137 -33 -231.5t-98.5 -158t-162.5 -98t-224 -53.5q-16 -2 -23.5 2t-11.5 21l-15 112q0 23 23 27q88 12 154.5 32.5t112.5 55.5t69.5 86t23.5 129v12 q-66 -20 -142.5 -32.5t-131.5 -12.5q-121 0 -208 41t-144.5 113t-84 172t-26.5 221zM266 1260l264 266q39 37 78 37q27 0 45.5 -7.5t40.5 -29.5l252 -262q14 -16 13 -25.5t-11 -19.5l-35 -31q-18 -12 -41 4l-264 192l-262 -196q-23 -16 -41 4l-37 39q-16 12 -2 29zM274 535 q0 -203 80 -303.5t221 -100.5q39 0 110 8t149 33v737q-59 20 -125 27.5t-113 7.5q-72 0 -131 -23.5t-101 -72.5t-66 -126t-24 -187z" />
<glyph unicode="&#x11e;" horiz-adv-x="1335" d="M113 700q0 172 44 311.5t124.5 238t197.5 151.5t262 53q86 0 188.5 -15.5t207.5 -68.5q10 -6 14 -16.5t-6 -30.5l-45 -102q-8 -14 -15.5 -18.5t-23.5 1.5q-68 33 -153 49.5t-163 16.5q-121 0 -204.5 -48t-136 -128t-76 -183.5t-23.5 -214.5q0 -117 20.5 -217t69.5 -174 t134 -116t214 -42q18 0 50 2.5t72 7.5t83 14t82 26v460q-20 4 -41.5 5.5t-42.5 1.5q-72 0 -148.5 -15.5t-150.5 -50.5q-23 -8 -32 -9t-19 15l-39 92q-14 25 14 45q66 43 160 68t189 25q53 0 87.5 -2.5t69.5 -8.5q78 -14 106.5 -50t28.5 -114v-516q0 -43 -32 -61 q-55 -35 -121 -55.5t-128.5 -30.5t-117.5 -14.5t-90 -4.5q-143 0 -256 43t-191.5 132.5t-120.5 225.5t-42 322zM376 1759q-3 10 13 23l39 35q18 10 24.5 7t20.5 -16q59 -66 124 -102.5t124 -36.5q45 0 104.5 27.5t143.5 118.5q16 14 22 13t17 -7l41 -33q16 -16 13 -26.5 t-7 -16.5q-86 -117 -175 -167t-167 -50q-102 0 -186.5 63.5t-143.5 151.5q-4 6 -7 16z" />
<glyph unicode="&#x11f;" horiz-adv-x="1144" d="M92 522q0 125 30 230.5t90 181.5t154.5 119t223.5 43q98 0 202.5 -14.5t196.5 -53.5q25 -10 25 -39v-905q0 -137 -33 -231.5t-98.5 -158t-162.5 -98t-224 -53.5q-16 -2 -23.5 2t-11.5 21l-15 112q0 23 23 27q88 12 154.5 32.5t112.5 55.5t69.5 86t23.5 129v12 q-66 -20 -142.5 -32.5t-131.5 -12.5q-121 0 -208 41t-144.5 113t-84 172t-26.5 221zM274 535q0 -203 80 -303.5t221 -100.5q39 0 110 8t149 33v737q-59 20 -125 27.5t-113 7.5q-72 0 -131 -23.5t-101 -72.5t-66 -126t-24 -187zM284 1448q-3 10 13 22l39 35q18 10 24.5 7 t20.5 -15q59 -66 123.5 -102.5t124.5 -36.5q45 0 104.5 27.5t143.5 117.5q16 14 22 13.5t16 -7.5l41 -32q16 -16 13.5 -26.5t-6.5 -16.5q-86 -117 -175 -167t-167 -50q-102 0 -186.5 63t-143.5 152q-4 6 -7 16z" />
<glyph unicode="&#x120;" horiz-adv-x="1335" d="M113 700q0 172 44 311.5t124.5 238t197.5 151.5t262 53q86 0 188.5 -15.5t207.5 -68.5q10 -6 14 -16.5t-6 -30.5l-45 -102q-8 -14 -15.5 -18.5t-23.5 1.5q-68 33 -153 49.5t-163 16.5q-121 0 -204.5 -48t-136 -128t-76 -183.5t-23.5 -214.5q0 -117 20.5 -217t69.5 -174 t134 -116t214 -42q18 0 50 2.5t72 7.5t83 14t82 26v460q-20 4 -41.5 5.5t-42.5 1.5q-72 0 -148.5 -15.5t-150.5 -50.5q-23 -8 -32 -9t-19 15l-39 92q-14 25 14 45q66 43 160 68t189 25q53 0 87.5 -2.5t69.5 -8.5q78 -14 106.5 -50t28.5 -114v-516q0 -43 -32 -61 q-55 -35 -121 -55.5t-128.5 -30.5t-117.5 -14.5t-90 -4.5q-143 0 -256 43t-191.5 132.5t-120.5 225.5t-42 322zM618 1651q0 47 36 81.5t83 34.5t81 -34.5t34 -81.5t-34 -81t-81 -34t-83 34t-36 81z" />
<glyph unicode="&#x121;" horiz-adv-x="1144" d="M92 522q0 125 30 230.5t90 181.5t154.5 119t223.5 43q98 0 202.5 -14.5t196.5 -53.5q25 -10 25 -39v-905q0 -137 -33 -231.5t-98.5 -158t-162.5 -98t-224 -53.5q-16 -2 -23.5 2t-11.5 21l-15 112q0 23 23 27q88 12 154.5 32.5t112.5 55.5t69.5 86t23.5 129v12 q-66 -20 -142.5 -32.5t-131.5 -12.5q-121 0 -208 41t-144.5 113t-84 172t-26.5 221zM274 535q0 -203 80 -303.5t221 -100.5q39 0 110 8t149 33v737q-59 20 -125 27.5t-113 7.5q-72 0 -131 -23.5t-101 -72.5t-66 -126t-24 -187zM502 1380q0 47 35.5 82t83.5 35q47 0 80.5 -35 t33.5 -82t-33.5 -80.5t-80.5 -33.5t-83 33.5t-36 80.5z" />
<glyph unicode="&#x122;" horiz-adv-x="1335" d="M113 700q0 172 44 311.5t124.5 238t197.5 151.5t262 53q86 0 188.5 -15.5t207.5 -68.5q10 -6 14 -16.5t-6 -30.5l-45 -102q-8 -14 -15.5 -18.5t-23.5 1.5q-68 33 -153 49.5t-163 16.5q-121 0 -204.5 -48t-136 -128t-76 -183.5t-23.5 -214.5q0 -117 20.5 -217t69.5 -174 t134 -116t214 -42q18 0 50 2.5t72 7.5t83 14t82 26v460q-20 4 -41.5 5.5t-42.5 1.5q-72 0 -148.5 -15.5t-150.5 -50.5q-23 -8 -32 -9t-19 15l-39 92q-14 25 14 45q66 43 160 68t189 25q53 0 87.5 -2.5t69.5 -8.5q78 -14 106.5 -50t28.5 -114v-516q0 -43 -32 -61 q-55 -35 -121 -55.5t-128.5 -30.5t-117.5 -14.5t-90 -4.5q-143 0 -256 43t-191.5 132.5t-120.5 225.5t-42 322zM604 -541l33 369q2 12 8 23.5t27 11.5h155q23 0 33 -6.5t2 -28.5l-121 -363q-8 -18 -14 -26t-25 -8h-69q-20 0 -25.5 7t-3.5 21z" />
<glyph unicode="&#x123;" horiz-adv-x="1144" d="M92 522q0 125 30 230.5t90 181.5t154.5 119t223.5 43q98 0 202.5 -14.5t196.5 -53.5q25 -10 25 -39v-905q0 -137 -33 -231.5t-98.5 -158t-162.5 -98t-224 -53.5q-16 -2 -23.5 2t-11.5 21l-15 112q0 23 23 27q88 12 154.5 32.5t112.5 55.5t69.5 86t23.5 129v12 q-66 -20 -142.5 -32.5t-131.5 -12.5q-121 0 -208 41t-144.5 113t-84 172t-26.5 221zM274 535q0 -203 80 -303.5t221 -100.5q39 0 110 8t149 33v737q-59 20 -125 27.5t-113 7.5q-72 0 -131 -23.5t-101 -72.5t-66 -126t-24 -187zM496 1229v8l98 334q8 16 14 23.5t23 7.5h59 q35 0 35 -27l-29 -336q0 -12 -7 -22.5t-25 -10.5h-138q-31 0 -30 23z" />
<glyph unicode="&#x124;" horiz-adv-x="1409" d="M154 35v1364q0 23 10 29t29 6h112q23 0 31 -6.5t8 -28.5v-561h723v561q0 23 9 29t30 6h111q23 0 30.5 -6.5t7.5 -28.5v-1364q0 -23 -8 -29t-30 -6h-111q-20 0 -29.5 6t-9.5 29v639h-723v-639q0 -23 -8 -29t-31 -6h-112q-18 0 -28.5 6t-10.5 29zM365 1577q-14 18 0 31 l253 204q43 35 80 35q16 0 37 -5t49 -30l244 -204q20 -18 4 -39l-28 -35q-8 -10 -17.5 -7t-25.5 11l-265 133l-262 -137q-12 -6 -19 -5t-18 11z" />
<glyph unicode="&#x125;" horiz-adv-x="1150" d="M-102 1569q-14 18 0 30l254 205q43 35 79 35q16 0 37 -5t49 -30l244 -205q20 -18 4 -38l-28 -35q-8 -10 -17.5 -7t-25.5 11l-265 133l-262 -137q-12 -6 -19 -5t-18 11zM133 31v1435q0 20 8.5 25.5t24.5 5.5h113q16 0 24 -5t8 -26v-415q66 27 143.5 37t137.5 10 q115 0 195.5 -34t133 -96.5t76 -151.5t23.5 -202v-583q0 -20 -8 -25.5t-25 -5.5h-115q-18 0 -25 5t-7 26v583q0 328 -279 328q-59 0 -129 -10t-121 -33v-868q0 -20 -8 -25.5t-24 -5.5h-113q-16 0 -24.5 5t-8.5 26z" />
<glyph unicode="&#x126;" horiz-adv-x="1409" d="M35 1139v55q0 14 4 20.5t20 6.5h95v182q0 20 8 25.5t24 5.5h127q16 0 24.5 -5.5t8.5 -25.5v-182h721v182q0 20 8 25.5t27 5.5h121q18 0 25 -5.5t7 -25.5v-182h80q16 0 20.5 -6.5t4.5 -20.5v-55q0 -16 -4 -21.5t-21 -5.5h-80v-1081q0 -20 -7 -25.5t-25 -5.5h-121 q-18 0 -26.5 5t-8.5 26v641h-721v-641q0 -20 -8 -25.5t-25 -5.5h-127q-16 0 -24 5t-8 26v1081h-95q-16 0 -20 5t-4 22zM346 838h721v274h-721v-274z" />
<glyph unicode="&#x127;" horiz-adv-x="1150" d="M25 1243v55q0 14 4 21.5t20 7.5h84v139q0 20 8.5 25.5t24.5 5.5h113q16 0 24 -5t8 -26v-139h430q16 0 20.5 -7t4.5 -22v-55q0 -14 -4 -20t-21 -6h-430v-228q66 25 143.5 35t137.5 10q115 0 195.5 -33.5t133 -96t76 -151.5t23.5 -200v-522q0 -20 -8 -25.5t-25 -5.5h-115 q-18 0 -25 5t-7 26v520q0 328 -279 328q-59 0 -129 -10.5t-121 -32.5v-805q0 -20 -8 -25.5t-24 -5.5h-113q-16 0 -24.5 5t-8.5 26v1186h-84q-16 0 -20 6t-4 20z" />
<glyph unicode="&#x128;" horiz-adv-x="548" d="M-74.5 1603.5q-5.5 6.5 2.5 20.5q35 61 88.5 102t126.5 41q35 0 69 -11t65.5 -24.5t60.5 -24.5t57 -11q33 0 57.5 16.5t36.5 42.5q8 16 13.5 18.5t21.5 -1.5l78 -31q16 -4 22.5 -10.5t0.5 -20.5q-35 -74 -84 -114t-127 -40q-37 0 -71 11.5t-66.5 25t-64.5 24.5t-65 11 q-29 0 -52 -16.5t-40 -40.5q-6 -10 -14 -14.5t-25 4.5l-69 30q-16 6 -21.5 12.5zM180 35v1364q0 23 9.5 29t29.5 6h111q23 0 31 -6.5t8 -28.5v-1364q0 -23 -8.5 -29t-30.5 -6h-111q-20 0 -29.5 6t-9.5 29z" />
<glyph unicode="&#x129;" horiz-adv-x="546" d="M-70.5 1325q-5.5 6 2.5 21q35 61 88.5 102t126.5 41q35 0 69 -11.5t65.5 -24.5t60.5 -24.5t57 -11.5q33 0 57.5 16.5t37.5 43.5q8 16 13 18t21 -2l78 -31q16 -4 22.5 -10t0.5 -20q-35 -74 -84 -114t-127 -40q-37 0 -71 11t-66.5 24.5t-64.5 25t-64 11.5 q-29 0 -52.5 -16.5t-40.5 -41.5q-6 -10 -14 -14t-25 4l-69 31q-16 6 -21.5 12zM184 31v1013q0 20 8.5 25.5t24.5 5.5h113q16 0 24 -5t8 -26v-1013q0 -20 -8 -25.5t-24 -5.5h-113q-16 0 -24.5 5t-8.5 26z" />
<glyph unicode="&#x12a;" horiz-adv-x="548" d="M-4 1634v78q0 16 5 24.5t26 8.5h491q20 0 25.5 -8t5.5 -25v-78q0 -16 -5 -24t-26 -8h-491q-20 0 -25.5 8t-5.5 24zM180 35v1364q0 23 9.5 29t29.5 6h111q23 0 31 -6.5t8 -28.5v-1364q0 -23 -8.5 -29t-30.5 -6h-111q-20 0 -29.5 6t-9.5 29z" />
<glyph unicode="&#x12b;" horiz-adv-x="546" d="M-2 1243v78q0 16 5 24.5t26 8.5h491q20 0 25.5 -8.5t5.5 -24.5v-78q0 -16 -5 -24.5t-26 -8.5h-491q-20 0 -25.5 8.5t-5.5 24.5zM184 31v1013q0 20 8.5 25.5t24.5 5.5h113q16 0 24 -5t8 -26v-1013q0 -20 -8 -25.5t-24 -5.5h-113q-16 0 -24.5 5t-8.5 26z" />
<glyph unicode="&#x12c;" horiz-adv-x="548" d="M-68.5 1736.5q-3.5 10.5 13.5 22.5l39 35q18 10 24 7t21 -15q59 -66 123.5 -102.5t123.5 -36.5q45 0 104.5 27.5t143.5 117.5q16 14 22.5 13t16.5 -7l41 -33q16 -16 13 -26t-7 -17q-86 -117 -175 -167t-167 -50q-102 0 -186 63.5t-143 151.5q-4 6 -7.5 16.5zM180 35v1364 q0 23 9.5 29t29.5 6h111q23 0 31 -6.5t8 -28.5v-1364q0 -23 -8.5 -29t-30.5 -6h-111q-20 0 -29.5 6t-9.5 29z" />
<glyph unicode="&#x12d;" horiz-adv-x="546" d="M-66.5 1429.5q-3.5 10.5 13.5 22.5l39 35q18 10 24 7t21 -15q59 -66 123.5 -103t124.5 -37q45 0 104 28t143 118q16 14 22.5 13t16.5 -7l41 -33q16 -16 13 -26.5t-7 -16.5q-86 -117 -175 -167t-167 -50q-102 0 -186 63.5t-143 151.5q-4 6 -7.5 16.5zM184 31v1013 q0 20 8.5 25.5t24.5 5.5h113q16 0 24 -5t8 -26v-1013q0 -20 -8 -25.5t-24 -5.5h-113q-16 0 -24.5 5t-8.5 26z" />
<glyph unicode="&#x12e;" horiz-adv-x="548" d="M82 -279q0 37 11 76t31.5 76t49.5 69.5t64 57.5h-19q-20 0 -29.5 6t-9.5 29v1364q0 23 9.5 29t29.5 6h111q23 0 31 -6.5t8 -28.5v-1364q0 -25 -13 -31q-61 -66 -97 -133.5t-36 -118.5q0 -41 26.5 -57.5t80.5 -16.5q16 0 46 5.5t58 13.5q14 4 20.5 3t10.5 -15l14 -39 q4 -14 0 -21.5t-12 -11.5q-29 -14 -83 -27.5t-110 -13.5q-104 0 -148 44t-44 105z" />
<glyph unicode="&#x12f;" horiz-adv-x="530" d="M66 -279q0 37 11 76t31.5 76t49 69.5t63.5 57.5h-12q-16 0 -25.5 5t-9.5 26v1013q0 20 9.5 25.5t25.5 5.5h110q18 0 25.5 -5t7.5 -26v-1013q0 -16 -3 -21.5t-13 -9.5q-59 -66 -94 -131.5t-35 -116.5q0 -41 26.5 -57.5t79.5 -16.5q16 0 46 5.5t59 13.5q14 4 20 3t11 -15 l14 -39q4 -14 0 -21.5t-12 -11.5q-29 -14 -83.5 -27.5t-109.5 -13.5q-104 0 -148 44t-44 105zM145 1362q0 51 36 86t85 35t84 -35t35 -86q0 -49 -35 -84t-84 -35t-85 35t-36 84z" />
<glyph unicode="&#x130;" horiz-adv-x="548" d="M154 1753q0 47 35.5 82t82.5 35t81 -35t34 -82t-34 -81t-81 -34t-82.5 34t-35.5 81zM180 35v1364q0 23 9.5 29t29.5 6h111q23 0 31 -6.5t8 -28.5v-1364q0 -23 -8.5 -29t-30.5 -6h-111q-20 0 -29.5 6t-9.5 29z" />
<glyph unicode="&#x131;" horiz-adv-x="546" d="M184 31v1013q0 20 8.5 25.5t24.5 5.5h113q16 0 24 -5t8 -26v-1013q0 -20 -8 -25.5t-24 -5.5h-113q-16 0 -24.5 5t-8.5 26z" />
<glyph unicode="&#x132;" horiz-adv-x="1564" d="M154 35v1364q0 23 9 29t30 6h110q23 0 31 -6.5t8 -28.5v-1364q0 -23 -8 -29t-31 -6h-110q-20 0 -29.5 6t-9.5 29zM432.5 100.5q-4.5 8.5 5.5 30.5l49 94q12 27 45 8q72 -39 164 -62.5t187 -23.5q186 0 264 105.5t78 312.5l-2 834q0 23 10 29t29 6h110q23 0 31 -6.5 t8 -28.5v-844q0 -274 -128 -426t-406 -152q-45 0 -98.5 5.5t-110 17.5t-112.5 32.5t-105 51.5q-14 8 -18.5 16.5z" />
<glyph unicode="&#x133;" horiz-adv-x="1009" d="M143 1362q0 51 36 86t85 35t84 -35t35 -86q0 -49 -35 -84t-84 -35t-85 35t-36 84zM172 31v1013q0 20 9 25.5t26 5.5h110q18 0 25.5 -5t7.5 -26v-1013q0 -20 -7 -25.5t-26 -5.5h-110q-16 0 -25.5 5t-9.5 26zM414 -328q-4 14 2 21.5t18 13.5q72 33 116 76t67.5 95 t31.5 110.5t8 122.5v933q0 20 9.5 25.5t25.5 5.5h113q18 0 25.5 -5t7.5 -26v-901q0 -143 -28 -243.5t-75 -170t-112.5 -111.5t-139.5 -69q-27 -8 -32 17zM629 1362q0 51 34.5 86t84.5 35q49 0 83.5 -35t34.5 -86q0 -49 -34.5 -84t-83.5 -35t-84 35t-35 84z" />
<glyph unicode="&#x134;" horiz-adv-x="1159" d="M14.5 100.5q-4.5 8.5 5.5 30.5l50 94q12 27 45 8q72 -39 164 -62.5t186 -23.5q186 0 264 105.5t78 312.5l-2 834q0 23 10 29t29 6h110q23 0 31 -6.5t8 -28.5v-844q0 -274 -128 -426t-406 -152q-45 0 -98.5 5.5t-109.5 17.5t-112.5 32.5t-105.5 51.5q-14 8 -18.5 16.5z M561 1569q-14 18 0 30l254 205q43 35 80 35q16 0 36.5 -5t49.5 -30l244 -205q20 -18 4 -38l-29 -35q-8 -10 -17 -7t-26 11l-264 133l-262 -137q-12 -6 -19.5 -5t-17.5 11z" />
<glyph unicode="&#x135;" horiz-adv-x="602" d="M-31 1257l264 267q39 37 80 37q25 0 43.5 -7.5t42.5 -29.5l250 -262q16 -16 15.5 -25.5t-13.5 -19.5l-33 -31q-16 -12 -43 4l-262 192l-264 -196q-20 -14 -39 4l-39 39q-14 10 -2 28zM-14 -328q-8 23 18 35q74 33 118 76t67.5 95t31.5 110.5t8 122.5v933q0 20 8.5 25.5 t24.5 5.5h115q16 0 24.5 -5t8.5 -26v-901q0 -143 -28 -243.5t-76 -170t-112.5 -111.5t-138.5 -69q-27 -8 -35 17z" />
<glyph unicode="&#x136;" horiz-adv-x="1292" d="M154 35v1364q0 23 10 29t29 6h106q23 0 31 -6.5t8 -28.5v-725l8 -2l207 260l381 477q20 25 65 25h152q16 0 21.5 -9.5t-5.5 -19.5l-391 -481l496 -883q20 -41 -19 -41h-131q-31 0 -45 5t-30 32l-402 731l-307 -381v-352q0 -23 -8 -29t-31 -6h-106q-18 0 -28.5 6t-10.5 29 zM526 -479l33 368q2 12 8 23.5t27 11.5h156q23 0 33 -6t1 -29l-120 -362q-8 -18 -14.5 -26.5t-24.5 -8.5h-70q-20 0 -25.5 7t-3.5 22z" />
<glyph unicode="&#x137;" horiz-adv-x="1011" d="M131 31v1435q0 20 8 25.5t25 5.5h112q18 0 25.5 -5t7.5 -26v-897l8 -4l414 494q6 8 13.5 12t23.5 4h158q10 0 13 -9t-3 -15l-274 -330l317 -698q4 -6 2 -14.5t-18 -8.5h-134q-33 0 -41 23l-249 555l-230 -265v-282q0 -20 -7 -25.5t-26 -5.5h-112q-16 0 -24.5 5t-8.5 26z M358 -541l33 369q2 12 8.5 23.5t26.5 11.5h156q23 0 33 -6.5t1 -28.5l-120 -363q-8 -18 -14.5 -26t-24.5 -8h-70q-20 0 -25.5 7t-3.5 21z" />
<glyph unicode="&#x138;" horiz-adv-x="1001" d="M131 31v1013q0 20 8 25.5t25 5.5h112q18 0 25.5 -5t7.5 -26v-479l10 -4l414 498q6 8 13.5 12t23.5 4h156q10 0 13 -9t-3 -15l-334 -394l377 -634q4 -6 2 -14.5t-18 -8.5h-142q-18 0 -26.5 5t-16.5 18l-289 503l-180 -213v-282q0 -20 -7 -25.5t-26 -5.5h-112 q-16 0 -24.5 5t-8.5 26z" />
<glyph unicode="&#x139;" horiz-adv-x="1130" d="M154 350v1051q0 23 9 30t27 7h111q23 0 31 -7.5t8 -29.5v-1063q0 -168 170 -168h569q18 0 23.5 -8t5.5 -25v-102q0 -18 -5 -26.5t-24 -8.5h-585q-98 0 -163 28.5t-105 76t-56 111t-16 134.5zM194 1610.5q1 7.5 15 17.5l287 207q10 8 21 11t22 -13l86 -117q16 -23 -4 -33 l-347 -157q-18 -8 -24 -4t-14 14l-35 55q-8 12 -7 19.5z" />
<glyph unicode="&#x13a;" horiz-adv-x="559" d="M154 182v1284q0 20 8 25.5t24 5.5h115q18 0 25.5 -5t7.5 -26v-1233q0 -59 15.5 -78.5t56.5 -19.5q20 0 38.5 1t34.5 3q14 2 20.5 -1t8.5 -17l10 -80q2 -16 -1 -23.5t-19 -15.5q-35 -16 -79 -20.5t-77 -4.5q-104 0 -146 50.5t-42 154.5zM173 1639.5q1 7.5 15 17.5l287 207 q10 8 21.5 11t21.5 -13l86 -117q16 -23 -4 -33l-346 -158q-18 -8 -24.5 -4t-14.5 15l-35 55q-8 12 -7 19.5z" />
<glyph unicode="&#x13b;" horiz-adv-x="1130" d="M154 350v1051q0 23 9 30t27 7h111q23 0 31 -7.5t8 -29.5v-1063q0 -168 170 -168h569q18 0 23.5 -8t5.5 -25v-102q0 -18 -5 -26.5t-24 -8.5h-585q-98 0 -163 28.5t-105 76t-56 111t-16 134.5zM535 -541l32 369q2 12 8.5 23.5t26.5 11.5h156q23 0 33 -6.5t2 -28.5 l-121 -363q-8 -18 -14.5 -26t-24.5 -8h-70q-20 0 -25.5 7t-2.5 21z" />
<glyph unicode="&#x13c;" horiz-adv-x="559" d="M137 -541l33 369q2 12 8 23.5t27 11.5h155q23 0 33 -6.5t2 -28.5l-121 -363q-8 -18 -14 -26t-24 -8h-70q-20 0 -25.5 7t-3.5 21zM154 182v1284q0 20 8 25.5t24 5.5h115q18 0 25.5 -5t7.5 -26v-1233q0 -59 15.5 -78.5t56.5 -19.5q20 0 38.5 1t34.5 3q14 2 20.5 -1t8.5 -17 l10 -80q2 -16 -1 -23.5t-19 -15.5q-35 -16 -79 -20.5t-77 -4.5q-104 0 -146 50.5t-42 154.5z" />
<glyph unicode="&#x13d;" horiz-adv-x="1130" d="M154 350v1051q0 23 9 30t27 7h111q23 0 31 -7.5t8 -29.5v-1063q0 -168 170 -168h569q18 0 23.5 -8t5.5 -25v-102q0 -18 -5 -26.5t-24 -8.5h-585q-98 0 -163 28.5t-105 76t-56 111t-16 134.5zM721 1028l33 369q2 12 8 23.5t26 11.5h156q23 0 33 -6.5t2 -28.5l-121 -363 q-8 -18 -14 -26.5t-25 -8.5h-69q-20 0 -25.5 7.5t-3.5 21.5z" />
<glyph unicode="&#x13e;" horiz-adv-x="714" d="M154 182v1284q0 20 8 25.5t24 5.5h115q18 0 25.5 -5t7.5 -26v-1233q0 -59 15.5 -78.5t56.5 -19.5q20 0 38.5 1t34.5 3q14 2 20.5 -1t8.5 -17l10 -80q2 -16 -1 -23.5t-19 -15.5q-35 -16 -79 -20.5t-77 -4.5q-104 0 -146 50.5t-42 154.5zM483 1053l33 368q2 12 8 23.5 t27 11.5h156q23 0 33 -6t1 -29l-120 -362q-8 -18 -14.5 -26.5t-24.5 -8.5h-70q-20 0 -25.5 7t-3.5 22z" />
<glyph unicode="&#x13f;" horiz-adv-x="1130" d="M154 350v1051q0 23 9 30t27 7h111q23 0 31 -7.5t8 -29.5v-1063q0 -168 170 -168h569q18 0 23.5 -8t5.5 -25v-102q0 -18 -5 -26.5t-24 -8.5h-585q-98 0 -163 28.5t-105 76t-56 111t-16 134.5zM672 774q0 47 35.5 82t83.5 35q47 0 80.5 -35t33.5 -82t-33.5 -81t-80.5 -34 t-83 34t-36 81z" />
<glyph unicode="&#x140;" horiz-adv-x="690" d="M154 182v1284q0 20 8 25.5t24 5.5h115q18 0 25.5 -5t7.5 -26v-1233q0 -59 15.5 -78.5t56.5 -19.5q20 0 38.5 1t34.5 3q14 2 20.5 -1t8.5 -17l10 -80q2 -16 -1 -23.5t-19 -15.5q-35 -16 -79 -20.5t-77 -4.5q-104 0 -146 50.5t-42 154.5zM471 782q0 47 36 82t83 35t81 -35 t34 -82t-34 -80.5t-81 -33.5t-83 33.5t-36 80.5z" />
<glyph unicode="&#x141;" horiz-adv-x="1130" d="M-41 573q-20 35 14 52l181 104v680q0 20 8 26.5t24 6.5h121q18 0 25.5 -6t7.5 -27v-573l233 135q14 8 28.5 7t25.5 -17l37 -56q16 -29 -21 -51l-303 -174v-336q0 -86 41 -128t131 -42h567q20 0 25.5 -8t5.5 -25v-102q0 -18 -5 -26.5t-26 -8.5h-583q-98 0 -164 28.5 t-106 77t-56 112t-16 132.5v217l-105 -61q-14 -8 -29.5 -7t-25.5 17z" />
<glyph unicode="&#x142;" horiz-adv-x="559" d="M-43 551q-20 35 16 51l181 105v759q0 20 8 25.5t24 5.5h115q18 0 25.5 -5t7.5 -26v-655l139 80q14 8 28.5 7t24.5 -17l31 -54q16 -27 -20 -51l-203 -117v-426q0 -59 15.5 -78.5t56.5 -19.5q20 0 38.5 1t34.5 3q14 2 20.5 -1t8.5 -17l10 -80q2 -16 -1 -23.5t-19 -15.5 q-35 -16 -79 -20.5t-77 -4.5q-104 0 -146 50.5t-42 154.5v373l-111 -63q-16 -8 -30.5 -7.5t-24.5 15.5z" />
<glyph unicode="&#x143;" horiz-adv-x="1415" d="M154 35v1298q0 51 21.5 77t78.5 26h53q45 0 64.5 -18.5t48.5 -63.5l477 -789l174 -297h6v1133q0 23 9.5 29t29.5 6h107q20 0 29.5 -6.5t9.5 -28.5v-1299q0 -51 -20.5 -76.5t-80.5 -25.5h-53q-47 0 -66.5 18.5t-48.5 63.5l-487 807l-162 278h-6v-1132q0 -23 -8 -29t-31 -6 h-106q-18 0 -28.5 6t-10.5 29zM615.5 1610.5q0.5 7.5 15.5 17.5l287 207q10 8 21 11t22 -13l86 -117q16 -23 -5 -33l-346 -157q-18 -8 -24 -4t-15 14l-34 55q-8 12 -7.5 19.5z" />
<glyph unicode="&#x144;" horiz-adv-x="1150" d="M133 31v893q0 70 27.5 107.5t101.5 47.5q23 4 56.5 7.5t70.5 6.5t72 4t59 1q131 0 225.5 -29t155 -91.5t89 -160.5t28.5 -237v-549q0 -20 -7 -25.5t-26 -5.5h-113q-16 0 -24 5t-8 26v542q0 92 -15.5 161t-53.5 115t-102.5 68.5t-162.5 22.5q-23 0 -76 -3t-119 -13v-893 q0 -20 -8 -25.5t-24 -5.5h-113q-16 0 -24.5 5t-8.5 26zM427 1229q-3 6 7 24l135 316q4 10 12.5 16t26.5 4l142 -37q16 -4 18 -13t-6 -19l-217 -308q-10 -16 -18.5 -18t-24.5 2l-58 23q-14 4 -17 10z" />
<glyph unicode="&#x145;" horiz-adv-x="1415" d="M154 35v1298q0 51 21.5 77t78.5 26h53q45 0 64.5 -18.5t48.5 -63.5l477 -789l174 -297h6v1133q0 23 9.5 29t29.5 6h107q20 0 29.5 -6.5t9.5 -28.5v-1299q0 -51 -20.5 -76.5t-80.5 -25.5h-53q-47 0 -66.5 18.5t-48.5 63.5l-487 807l-162 278h-6v-1132q0 -23 -8 -29t-31 -6 h-106q-18 0 -28.5 6t-10.5 29zM522 -479l33 368q2 12 8 23.5t27 11.5h155q23 0 33 -6t2 -29l-121 -362q-8 -18 -14 -26.5t-24 -8.5h-70q-20 0 -25.5 7t-3.5 22z" />
<glyph unicode="&#x146;" horiz-adv-x="1150" d="M133 31v893q0 70 27.5 107.5t101.5 47.5q23 4 56.5 7.5t70.5 6.5t72 4t59 1q131 0 225.5 -29t155 -91.5t89 -160.5t28.5 -237v-549q0 -20 -7 -25.5t-26 -5.5h-113q-16 0 -24 5t-8 26v542q0 92 -15.5 161t-53.5 115t-102.5 68.5t-162.5 22.5q-23 0 -76 -3t-119 -13v-893 q0 -20 -8 -25.5t-24 -5.5h-113q-16 0 -24.5 5t-8.5 26zM430 -541l33 369q2 12 8 23.5t27 11.5h155q23 0 33 -6.5t2 -28.5l-121 -363q-8 -18 -14 -26t-25 -8h-69q-20 0 -25.5 7t-3.5 21z" />
<glyph unicode="&#x147;" horiz-adv-x="1415" d="M154 35v1298q0 51 21.5 77t78.5 26h53q45 0 64.5 -18.5t48.5 -63.5l477 -789l174 -297h6v1133q0 23 9.5 29t29.5 6h107q20 0 29.5 -6.5t9.5 -28.5v-1299q0 -51 -20.5 -76.5t-80.5 -25.5h-53q-47 0 -66.5 18.5t-48.5 63.5l-487 807l-162 278h-6v-1132q0 -23 -8 -29t-31 -6 h-106q-18 0 -28.5 6t-10.5 29zM394 1772.5q3 5.5 7 13.5l33 47q8 12 14.5 12t18.5 -6l274 -143l269 141q16 8 22 8t15 -8l36 -41q10 -10 11.5 -19.5t-15.5 -21.5l-252 -201q-27 -20 -48 -26t-38 -6q-16 0 -35.5 8t-41.5 24l-265 205q-8 8 -5 13.5z" />
<glyph unicode="&#x148;" horiz-adv-x="1150" d="M133 31v893q0 70 27.5 107.5t101.5 47.5q23 4 56.5 7.5t70.5 6.5t72 4t59 1q131 0 225.5 -29t155 -91.5t89 -160.5t28.5 -237v-549q0 -20 -7 -25.5t-26 -5.5h-113q-16 0 -24 5t-8 26v542q0 92 -15.5 161t-53.5 115t-102.5 68.5t-162.5 22.5q-23 0 -76 -3t-119 -13v-893 q0 -20 -8 -25.5t-24 -5.5h-113q-16 0 -24.5 5t-8.5 26zM211 1485q-14 16 2 28l39 37q18 16 41 4l260 -194l264 192q23 16 41 4l35 -30q10 -10 11 -19.5t-13 -25.5l-252 -262q-23 -23 -41 -30t-45 -7q-39 0 -78 37z" />
<glyph unicode="&#x149;" horiz-adv-x="1302" d="M12 1040l33 369q2 12 8 23.5t27 11.5h156q23 0 33 -6t1 -29l-120 -362q-8 -18 -14.5 -26.5t-24.5 -8.5h-70q-20 0 -25.5 7t-3.5 21zM285 31v893q0 70 27.5 107.5t101.5 47.5q23 4 56.5 7.5t70.5 6.5t71.5 4t59.5 1q131 0 225 -29t154.5 -91.5t89 -160.5t28.5 -237v-549 q0 -20 -7 -25.5t-25 -5.5h-113q-16 0 -24.5 5t-8.5 26v542q0 92 -15 161t-53 115t-102.5 68.5t-163.5 22.5q-23 0 -76 -3t-118 -13v-893q0 -20 -8.5 -25.5t-24.5 -5.5h-113q-16 0 -24 5t-8 26z" />
<glyph unicode="&#x14a;" horiz-adv-x="1415" d="M154 31v1319q0 51 21.5 76.5t74.5 25.5h57q31 0 51.5 -6t37 -19.5t30.5 -35t31 -50.5l438 -731l172 -299h10v1094q0 18 8.5 23.5t24.5 5.5h119q16 0 24.5 -5.5t8.5 -23.5v-1565q0 -51 -10.5 -97t-36 -81t-71.5 -55.5t-120 -20.5q-29 0 -64.5 6.5t-66.5 16.5 q-16 4 -17.5 12t3.5 21l14 92q4 18 13 20t22 0q39 -8 67 -8q68 0 80 32t12 97v90l-575 955l-168 290h-6v-1179q0 -20 -8 -25.5t-25 -5.5h-119q-16 0 -24 5t-8 26z" />
<glyph unicode="&#x14b;" horiz-adv-x="1150" d="M133 31v893q0 137 129 155q23 4 56.5 7.5t70.5 6.5t72 4t59 1q131 0 225.5 -29t155 -91.5t89 -160.5t28.5 -237v-740q0 -51 -10.5 -97t-36 -81t-71.5 -55.5t-120 -20.5q-29 0 -64.5 6.5t-66.5 16.5q-14 4 -16 12t2 21l14 90q4 20 13.5 22t21.5 -2q23 -4 35.5 -5t28.5 -1 q35 0 53 7t27.5 23.5t11.5 40t2 58.5q0 39 -1 92t-1 135v197v274q0 92 -15.5 161t-53.5 115t-102.5 68.5t-162.5 22.5q-23 0 -76 -3t-119 -13v-893q0 -20 -8 -25.5t-24 -5.5h-113q-16 0 -24.5 5t-8.5 26z" />
<glyph unicode="&#x14c;" horiz-adv-x="1443" d="M113 715q0 178 46 316t127 232.5t192.5 143.5t242.5 49q150 0 264.5 -50t191 -145.5t115.5 -230.5t39 -307q0 -360 -154.5 -553t-459.5 -193q-303 0 -453.5 190.5t-150.5 547.5zM301 723q0 -127 20.5 -232.5t68.5 -182.5t128 -120t201 -43q119 0 199.5 47.5t130 127 t70 182t20.5 213.5q0 113 -17.5 216t-63.5 183t-126 127t-205 47q-111 0 -190.5 -45t-132 -123t-78 -180t-25.5 -217zM446 1622v78q0 16 5.5 24.5t25.5 8.5h492q20 0 25 -8.5t5 -24.5v-78q0 -16 -5 -24.5t-25 -8.5h-492q-20 0 -25.5 8.5t-5.5 24.5z" />
<glyph unicode="&#x14d;" horiz-adv-x="1140" d="M92 537q0 135 36 239.5t100.5 176t152.5 108.5t190 37q233 0 355.5 -147.5t122.5 -407.5q0 -274 -124 -420t-360 -146q-231 0 -352 141.5t-121 418.5zM270 543q0 -92 14.5 -169t49.5 -131.5t91 -85t142 -30.5t144.5 35t93.5 92t49 131t14 152q0 80 -12 154.5t-45 131 t-90 91t-148 34.5q-78 0 -135 -32.5t-94 -88t-55.5 -129t-18.5 -155.5zM293 1260v77q0 16 5 24.5t26 8.5h491q20 0 25.5 -8t5.5 -25v-77q0 -16 -5 -24.5t-26 -8.5h-491q-20 0 -25.5 8t-5.5 25z" />
<glyph unicode="&#x14e;" horiz-adv-x="1443" d="M113 715q0 178 46 316t127 232.5t192.5 143.5t242.5 49q150 0 264.5 -50t191 -145.5t115.5 -230.5t39 -307q0 -360 -154.5 -553t-459.5 -193q-303 0 -453.5 190.5t-150.5 547.5zM301 723q0 -127 20.5 -232.5t68.5 -182.5t128 -120t201 -43q119 0 199.5 47.5t130 127 t70 182t20.5 213.5q0 113 -17.5 216t-63.5 183t-126 127t-205 47q-111 0 -190.5 -45t-132 -123t-78 -180t-25.5 -217zM390 1759q-3 10 13 23l39 35q18 10 24.5 7t20.5 -16q59 -66 124 -102.5t124 -36.5q45 0 104.5 27.5t143.5 118.5q16 14 22.5 13t16.5 -7l41 -33 q16 -16 13 -26.5t-7 -16.5q-86 -117 -175 -167t-167 -50q-102 0 -186 63.5t-144 151.5q-4 6 -7 16z" />
<glyph unicode="&#x14f;" horiz-adv-x="1140" d="M92 537q0 135 36 239.5t100.5 176t152.5 108.5t190 37q233 0 355.5 -147.5t122.5 -407.5q0 -274 -124 -420t-360 -146q-231 0 -352 141.5t-121 418.5zM226 1431.5q-3 10.5 14 22.5l39 35q18 10 24 7t21 -15q59 -66 123.5 -103t123.5 -37q45 0 104.5 28t143.5 118 q16 14 22.5 13t16.5 -7l41 -33q16 -16 13 -26.5t-7 -16.5q-86 -117 -175 -167t-167 -50q-102 0 -186 63.5t-144 151.5q-4 6 -7 16.5zM270 543q0 -92 14.5 -169t49.5 -131.5t91 -85t142 -30.5t144.5 35t93.5 92t49 131t14 152q0 80 -12 154.5t-45 131t-90 91t-148 34.5 q-78 0 -135 -32.5t-94 -88t-55.5 -129t-18.5 -155.5z" />
<glyph unicode="&#x150;" horiz-adv-x="1443" d="M113 715q0 178 46 316t127 232.5t192.5 143.5t242.5 49q150 0 264.5 -50t191 -145.5t115.5 -230.5t39 -307q0 -360 -154.5 -553t-459.5 -193q-303 0 -453.5 190.5t-150.5 547.5zM301 723q0 -127 20.5 -232.5t68.5 -182.5t128 -120t201 -43q119 0 199.5 47.5t130 127 t70 182t20.5 213.5q0 113 -17.5 216t-63.5 183t-126 127t-205 47q-111 0 -190.5 -45t-132 -123t-78 -180t-25.5 -217zM437 1621q1 7 18 17l282 207q10 8 20.5 10.5t22.5 -12.5l88 -106q12 -10 9 -19.5t-13 -13.5l-327 -154q-20 -8 -28.5 -5t-19.5 14l-43 43q-10 12 -9 19z M810 1621q1 7 17 17l283 207q10 8 19.5 10.5t23.5 -12.5l88 -106q12 -10 9 -19.5t-13 -13.5l-330 -154q-18 -8 -26.5 -5t-18.5 14l-43 43q-10 12 -9 19z" />
<glyph unicode="&#x151;" horiz-adv-x="1140" d="M92 537q0 135 36 239.5t100.5 176t152.5 108.5t190 37q233 0 355.5 -147.5t122.5 -407.5q0 -274 -124 -420t-360 -146q-231 0 -352 141.5t-121 418.5zM270 543q0 -92 14.5 -169t49.5 -131.5t91 -85t142 -30.5t144.5 35t93.5 92t49 131t14 152q0 80 -12 154.5t-45 131 t-90 91t-148 34.5q-78 0 -135 -32.5t-94 -88t-55.5 -129t-18.5 -155.5zM349.5 1229q-3.5 6 4.5 24l135 316q4 10 12.5 16t26.5 4l144 -37q16 -4 18 -13t-6 -19l-217 -308q-10 -16 -18.5 -18t-22.5 2l-59 23q-14 4 -17.5 10zM626 1229q-3 6 5 24l135 316q4 10 12 16t27 4 l141 -37q16 -4 18.5 -13t-3.5 -19l-218 -308q-10 -16 -19 -18t-24 2l-57 23q-14 4 -17 10z" />
<glyph unicode="&#x152;" horiz-adv-x="1851" d="M154 717q0 168 42 304t120.5 233.5t189 149.5t250.5 52q154 0 270 -61q76 41 184 41h545q20 0 25.5 -8.5t5.5 -24.5v-105q0 -18 -5 -25t-26 -7h-530q-90 0 -130 -40t-40 -126v-256h631q18 0 23 -8.5t5 -26.5v-96q0 -16 -5 -24.5t-23 -8.5h-631v-344q0 -72 39 -118 t131 -46h536q18 0 23.5 -8t5.5 -27v-104q0 -16 -5 -24.5t-24 -8.5h-551q-109 0 -182 39q-59 -29 -128 -45.5t-144 -16.5q-172 0 -288 61.5t-185.5 165t-99 236.5t-29.5 277zM342 717q0 -123 21.5 -227.5t69.5 -181.5t127 -121t196 -44q82 0 147 25q-18 39 -25.5 84t-7.5 92 v741q0 47 7.5 90.5t23.5 81.5q-33 10 -68.5 17.5t-76.5 7.5q-106 0 -184 -43t-129.5 -117.5t-76 -178t-24.5 -226.5z" />
<glyph unicode="&#x153;" horiz-adv-x="1882" d="M92 537q0 135 36 239.5t100.5 176t152.5 108.5t190 37q139 0 238.5 -54.5t159.5 -158.5q59 104 157.5 158.5t221.5 54.5q117 0 200.5 -33t139 -93.5t82 -143.5t26.5 -183q0 -96 -46 -128t-110 -32h-585q0 -96 25.5 -163.5t69.5 -109.5t102.5 -60.5t123.5 -18.5 q70 0 135.5 17.5t108.5 39.5q29 14 39 -10l43 -86q14 -31 -10 -41q-76 -45 -161 -60.5t-167 -15.5q-139 0 -242.5 49.5t-163.5 153.5q-119 -203 -393 -203q-231 0 -352 141.5t-121 418.5zM270 543q0 -92 14.5 -169t49.5 -131.5t91 -85t142 -30.5t144.5 35t93.5 92t49 131 t14 152q0 80 -12 154.5t-45 131t-90 91t-148 34.5q-78 0 -135 -32.5t-94 -88t-55.5 -129t-18.5 -155.5zM1061 629h565q0 63 -12 121.5t-43 102.5t-85 69.5t-138 25.5q-68 0 -119 -26.5t-87 -70.5t-56.5 -101.5t-24.5 -120.5z" />
<glyph unicode="&#x154;" horiz-adv-x="1282" d="M154 35v1298q0 53 22.5 79t81.5 26h469q98 0 177 -30t136.5 -84t88 -128t30.5 -162q0 -123 -61.5 -216t-169.5 -134v-8q84 -27 120.5 -79t57.5 -128l119 -432q4 -10 1 -23.5t-26 -13.5h-135q-10 0 -21.5 4t-15.5 23l-108 391q-16 59 -43 98t-63 61.5t-80 30.5t-95 8h-293 v-581q0 -23 -8 -29t-31 -6h-114q-20 0 -29.5 6t-9.5 29zM348 780h342q74 0 127 19.5t87 53.5t50.5 78t16.5 95q0 41 -12.5 83t-43 77t-82 56.5t-128.5 21.5h-357v-484zM501 1610.5q1 7.5 15 17.5l287 207q10 8 21.5 11t21.5 -13l86 -117q16 -23 -4 -33l-346 -157 q-18 -8 -24.5 -4t-14.5 14l-35 55q-8 12 -7 19.5z" />
<glyph unicode="&#x155;" horiz-adv-x="851" d="M154 31v901q0 74 24.5 108.5t102.5 46.5q41 4 79.5 7.5t77.5 3.5q121 0 223.5 -33t188.5 -109q16 -16 2 -32l-76 -99q-10 -14 -17 -11t-18 9q-57 55 -130.5 85t-159.5 30q-57 0 -121 -12v-895q0 -20 -8.5 -25.5t-24.5 -5.5h-113q-16 0 -23 5t-7 26zM329 1229q-3 6 7 24 l135 316q4 10 12.5 16t26.5 4l141 -37q16 -4 18.5 -13t-5.5 -19l-218 -308q-10 -16 -18 -18t-25 2l-57 23q-14 4 -17 10z" />
<glyph unicode="&#x156;" horiz-adv-x="1282" d="M154 35v1298q0 53 22.5 79t81.5 26h469q98 0 177 -30t136.5 -84t88 -128t30.5 -162q0 -123 -61.5 -216t-169.5 -134v-8q84 -27 120.5 -79t57.5 -128l119 -432q4 -10 1 -23.5t-26 -13.5h-135q-10 0 -21.5 4t-15.5 23l-108 391q-16 59 -43 98t-63 61.5t-80 30.5t-95 8h-293 v-581q0 -23 -8 -29t-31 -6h-114q-20 0 -29.5 6t-9.5 29zM348 780h342q74 0 127 19.5t87 53.5t50.5 78t16.5 95q0 41 -12.5 83t-43 77t-82 56.5t-128.5 21.5h-357v-484zM524 -477l33 368q2 12 8 23.5t27 11.5h156q23 0 33 -6t1 -29l-120 -362q-8 -18 -14.5 -26.5t-24.5 -8.5 h-70q-20 0 -25.5 7t-3.5 22z" />
<glyph unicode="&#x157;" horiz-adv-x="851" d="M96 -541l33 369q2 12 8 23.5t27 11.5h155q23 0 33 -6.5t2 -28.5l-121 -363q-8 -18 -14 -26t-24 -8h-70q-20 0 -25.5 7t-3.5 21zM154 31v901q0 74 24.5 108.5t102.5 46.5q41 4 79.5 7.5t77.5 3.5q121 0 223.5 -33t188.5 -109q16 -16 2 -32l-76 -99q-10 -14 -17 -11t-18 9 q-57 55 -130.5 85t-159.5 30q-57 0 -121 -12v-895q0 -20 -8.5 -25.5t-24.5 -5.5h-113q-16 0 -23 5t-7 26z" />
<glyph unicode="&#x158;" horiz-adv-x="1282" d="M154 35v1298q0 53 22.5 79t81.5 26h469q98 0 177 -30t136.5 -84t88 -128t30.5 -162q0 -123 -61.5 -216t-169.5 -134v-8q84 -27 120.5 -79t57.5 -128l119 -432q4 -10 1 -23.5t-26 -13.5h-135q-10 0 -21.5 4t-15.5 23l-108 391q-16 59 -43 98t-63 61.5t-80 30.5t-95 8h-293 v-581q0 -23 -8 -29t-31 -6h-114q-20 0 -29.5 6t-9.5 29zM255 1772.5q3 5.5 7 13.5l33 47q8 12 14 12t19 -6l274 -143l268 141q16 8 22.5 8t14.5 -8l37 -41q10 -10 11 -19.5t-15 -21.5l-252 -201q-27 -20 -48.5 -26t-37.5 -6t-35.5 8t-42.5 24l-264 205q-8 8 -5 13.5z M348 780h342q74 0 127 19.5t87 53.5t50.5 78t16.5 95q0 41 -12.5 83t-43 77t-82 56.5t-128.5 21.5h-357v-484z" />
<glyph unicode="&#x159;" horiz-adv-x="851" d="M84 1483q-14 16 2 28l39 37q18 16 41 4l260 -194l264 192q23 16 41 4l35 -30q10 -10 11 -19.5t-13 -25.5l-252 -262q-23 -23 -41 -30t-45 -7q-39 0 -78 37zM154 31v901q0 74 24.5 108.5t102.5 46.5q41 4 79.5 7.5t77.5 3.5q121 0 223.5 -33t188.5 -109q16 -16 2 -32 l-76 -99q-10 -14 -17 -11t-18 9q-57 55 -130.5 85t-159.5 30q-57 0 -121 -12v-895q0 -20 -8.5 -25.5t-24.5 -5.5h-113q-16 0 -23 5t-7 26z" />
<glyph unicode="&#x15a;" horiz-adv-x="1167" d="M78 125l49 108q10 23 33 13q106 -47 220 -73t208 -26q156 0 243 58.5t87 169.5q0 53 -22 93t-63.5 73.5t-105 63.5t-147.5 61q-113 41 -198 81.5t-141.5 89t-85 108t-28.5 136.5q0 168 115.5 272.5t339.5 104.5q102 0 215.5 -19.5t212.5 -62.5q23 -10 14 -35l-45 -114 q-6 -14 -11 -16.5t-16 1.5q-104 41 -199.5 58.5t-177.5 17.5q-123 0 -190.5 -54t-67.5 -138q0 -51 22.5 -88t67 -68t112 -59.5t159.5 -65.5q86 -33 164 -68.5t137 -85t95 -117t36 -161.5q0 -102 -39 -178t-106.5 -127t-159.5 -76t-199 -25q-59 0 -124.5 5.5t-133 17.5 t-134.5 32.5t-128 51.5q-23 12 -8 41zM425 1610.5q1 7.5 15 17.5l287 207q10 8 21.5 11t21.5 -13l86 -117q16 -23 -4 -33l-346 -157q-18 -8 -24.5 -4t-14.5 14l-35 55q-8 12 -7 19.5z" />
<glyph unicode="&#x15b;" horiz-adv-x="950" d="M73 75.5q-5 10.5 3 26.5l39 84q6 16 15 20.5t30 -3.5q82 -39 169 -56.5t158 -17.5q98 0 155.5 40t57.5 114q0 76 -65.5 118.5t-185.5 85.5q-86 31 -148.5 62t-102.5 66.5t-58.5 80.5t-18.5 107q0 129 93 212t271 83q84 0 163 -13.5t159 -46.5q25 -12 16 -39l-39 -96 q-6 -12 -13 -12t-17 4q-82 31 -142.5 41t-130.5 10q-92 0 -139 -39t-47 -94q0 -35 13.5 -60.5t42 -47t75.5 -42t113 -45.5q63 -25 123.5 -51t106.5 -64t74.5 -89t28.5 -123q0 -80 -29.5 -138.5t-81.5 -97.5t-123 -58.5t-151 -19.5q-96 0 -204.5 18.5t-192.5 63.5 q-12 6 -17 16.5zM343 1229q-3 6 7 24l135 316q4 10 12.5 16t26.5 4l142 -37q16 -4 18 -13t-6 -19l-217 -308q-10 -16 -18.5 -18t-24.5 2l-58 23q-14 4 -17 10z" />
<glyph unicode="&#x15c;" horiz-adv-x="1167" d="M78 125l49 108q10 23 33 13q106 -47 220 -73t208 -26q156 0 243 58.5t87 169.5q0 53 -22 93t-63.5 73.5t-105 63.5t-147.5 61q-113 41 -198 81.5t-141.5 89t-85 108t-28.5 136.5q0 168 115.5 272.5t339.5 104.5q102 0 215.5 -19.5t212.5 -62.5q23 -10 14 -35l-45 -114 q-6 -14 -11 -16.5t-16 1.5q-104 41 -199.5 58.5t-177.5 17.5q-123 0 -190.5 -54t-67.5 -138q0 -51 22.5 -88t67 -68t112 -59.5t159.5 -65.5q86 -33 164 -68.5t137 -85t95 -117t36 -161.5q0 -102 -39 -178t-106.5 -127t-159.5 -76t-199 -25q-59 0 -124.5 5.5t-133 17.5 t-134.5 32.5t-128 51.5q-23 12 -8 41zM276 1585q-14 18 0 31l254 205q43 35 80 34q16 0 37 -5t49 -29l244 -205q20 -18 4 -39l-29 -35q-8 -10 -17 -7t-26 11l-264 133l-262 -137q-12 -6 -19.5 -5t-17.5 11z" />
<glyph unicode="&#x15d;" horiz-adv-x="950" d="M73 75.5q-5 10.5 3 26.5l39 84q6 16 15 20.5t30 -3.5q82 -39 169 -56.5t158 -17.5q98 0 155.5 40t57.5 114q0 76 -65.5 118.5t-185.5 85.5q-86 31 -148.5 62t-102.5 66.5t-58.5 80.5t-18.5 107q0 129 93 212t271 83q84 0 163 -13.5t159 -46.5q25 -12 16 -39l-39 -96 q-6 -12 -13 -12t-17 4q-82 31 -142.5 41t-130.5 10q-92 0 -139 -39t-47 -94q0 -35 13.5 -60.5t42 -47t75.5 -42t113 -45.5q63 -25 123.5 -51t106.5 -64t74.5 -89t28.5 -123q0 -80 -29.5 -138.5t-81.5 -97.5t-123 -58.5t-151 -19.5q-96 0 -204.5 18.5t-192.5 63.5 q-12 6 -17 16.5zM133 1276l264 266q39 37 78 37q27 0 45.5 -7t40.5 -30l252 -262q14 -16 13 -25.5t-11 -19.5l-35 -31q-18 -12 -41 4l-264 193l-262 -197q-23 -16 -41 4l-37 39q-16 12 -2 29z" />
<glyph unicode="&#x15e;" horiz-adv-x="1167" d="M78 125l49 108q10 23 33 13q106 -47 220 -73t208 -26q156 0 243 58.5t87 169.5q0 53 -22 93t-63.5 73.5t-105 63.5t-147.5 61q-113 41 -198 81.5t-141.5 89t-85 108t-28.5 136.5q0 168 115.5 272.5t339.5 104.5q102 0 215.5 -19.5t212.5 -62.5q23 -10 14 -35l-45 -114 q-6 -14 -11 -16.5t-16 1.5q-104 41 -199.5 58.5t-177.5 17.5q-123 0 -190.5 -54t-67.5 -138q0 -51 22.5 -88t67 -68t112 -59.5t159.5 -65.5q86 -33 164 -68.5t137 -85t95 -117t36 -161.5q0 -102 -39 -178t-106.5 -127t-159.5 -76t-199 -25h-16l-31 -90q57 -4 95 -18 t61.5 -35.5t34 -49.5t10.5 -54q0 -29 -12.5 -58.5t-38 -53.5t-66.5 -39t-96 -15q-51 0 -100.5 10t-77.5 25q-23 10 -13 32l15 41q8 16 14 16.5t18 -3.5q31 -12 63 -17.5t60 -5.5q106 0 107 70q0 39 -36 55t-83 16h-35t-20 9q-12 6 -11 19t5 28l43 123q-102 8 -209 31.5 t-201 70.5q-23 12 -8 41z" />
<glyph unicode="&#x15f;" horiz-adv-x="950" d="M73 75.5q-5 10.5 3 26.5l39 84q6 16 15 20.5t30 -3.5q82 -39 169 -56.5t158 -17.5q98 0 155.5 40t57.5 114q0 76 -65.5 118.5t-185.5 85.5q-86 31 -148.5 62t-102.5 66.5t-58.5 80.5t-18.5 107q0 129 93 212t271 83q84 0 163 -13.5t159 -46.5q25 -12 16 -39l-39 -96 q-6 -12 -13 -12t-17 4q-82 31 -142.5 41t-130.5 10q-92 0 -139 -39t-47 -94q0 -35 13.5 -60.5t42 -47t75.5 -42t113 -45.5q63 -25 123.5 -51t106.5 -64t74.5 -89.5t28.5 -122.5q0 -80 -29.5 -138.5t-81.5 -97.5t-122 -58.5t-150 -19.5l-30 -90q57 -4 95 -18t61.5 -35.5 t33.5 -49.5t10 -54q0 -29 -12 -58.5t-37.5 -53.5t-66.5 -39t-97 -15q-51 0 -100 10t-78 25q-23 10 -12 32l14 41q8 16 14.5 16.5t18.5 -3.5q31 -12 62.5 -17.5t60.5 -5.5q106 0 106 70q0 39 -35.5 55t-82.5 16h-35t-21 9q-12 6 -11 19t5 28l43 123q-80 6 -160.5 24.5 t-144.5 52.5q-12 6 -17 16.5z" />
<glyph unicode="&#x160;" horiz-adv-x="1167" d="M78 125l49 108q10 23 33 13q106 -47 220 -73t208 -26q156 0 243 58.5t87 169.5q0 53 -22 93t-63.5 73.5t-105 63.5t-147.5 61q-113 41 -198 81.5t-141.5 89t-85 108t-28.5 136.5q0 168 115.5 272.5t339.5 104.5q102 0 215.5 -19.5t212.5 -62.5q23 -10 14 -35l-45 -114 q-6 -14 -11 -16.5t-16 1.5q-104 41 -199.5 58.5t-177.5 17.5q-123 0 -190.5 -54t-67.5 -138q0 -51 22.5 -88t67 -68t112 -59.5t159.5 -65.5q86 -33 164 -68.5t137 -85t95 -117t36 -161.5q0 -102 -39 -178t-106.5 -127t-159.5 -76t-199 -25q-59 0 -124.5 5.5t-133 17.5 t-134.5 32.5t-128 51.5q-23 12 -8 41zM265 1772.5q3 5.5 7 13.5l33 47q8 12 14.5 12t18.5 -6l274 -143l269 141q16 8 22 8t15 -8l36 -41q10 -10 11.5 -19.5t-15.5 -21.5l-252 -201q-27 -20 -48 -26t-38 -6q-16 0 -35.5 8t-41.5 24l-265 205q-8 8 -5 13.5z" />
<glyph unicode="&#x161;" horiz-adv-x="950" d="M73 75.5q-5 10.5 3 26.5l39 84q6 16 15 20.5t30 -3.5q82 -39 169 -56.5t158 -17.5q98 0 155.5 40t57.5 114q0 76 -65.5 118.5t-185.5 85.5q-86 31 -148.5 62t-102.5 66.5t-58.5 80.5t-18.5 107q0 129 93 212t271 83q84 0 163 -13.5t159 -46.5q25 -12 16 -39l-39 -96 q-6 -12 -13 -12t-17 4q-82 31 -142.5 41t-130.5 10q-92 0 -139 -39t-47 -94q0 -35 13.5 -60.5t42 -47t75.5 -42t113 -45.5q63 -25 123.5 -51t106.5 -64t74.5 -89t28.5 -123q0 -80 -29.5 -138.5t-81.5 -97.5t-123 -58.5t-151 -19.5q-96 0 -204.5 18.5t-192.5 63.5 q-12 6 -17 16.5zM133 1491q-14 16 2 29l39 36q18 16 41 5l260 -195l264 193q23 16 41 4l35 -31q10 -10 11 -19.5t-13 -25.5l-252 -262q-23 -23 -41 -30t-45 -7q-39 0 -78 37z" />
<glyph unicode="&#x162;" horiz-adv-x="1120" d="M31 1300v101q0 16 5 24.5t23 8.5h1004q18 0 23.5 -8.5t5.5 -24.5v-101q0 -18 -5.5 -25t-23.5 -7h-412v-1233q0 -23 -8 -29t-29 -6h-116q-20 0 -29.5 6t-9.5 29v1233h-400q-18 0 -23 7t-5 25zM406 -541l32 369q2 12 8.5 23.5t26.5 11.5h156q23 0 33 -6.5t2 -28.5 l-121 -363q-8 -18 -14.5 -26t-24.5 -8h-70q-20 0 -25.5 7t-2.5 21z" />
<glyph unicode="&#x163;" horiz-adv-x="755" d="M35 963v59q0 27 28 35l160 30l33 197q4 20 12 26.5t25 14.5l67 25q14 4 22.5 -1.5t8.5 -25.5v-248h227q18 0 23.5 -8t5.5 -23v-81q0 -16 -5 -22.5t-24 -6.5h-227v-664q0 -72 32 -103.5t105 -31.5q27 0 75 5t83 10q18 4 23.5 -1.5t7.5 -15.5l18 -92q2 -12 1 -20.5 t-17 -14.5q-59 -18 -125 -23.5t-94 -5.5q-160 0 -223.5 69t-63.5 212v676h-150q-18 0 -23 8t-5 21zM205 -541l33 369q2 12 8 23.5t26 11.5h156q23 0 33 -6.5t2 -28.5l-121 -363q-8 -18 -14 -26t-25 -8h-70q-20 0 -25 7t-3 21z" />
<glyph unicode="&#x164;" horiz-adv-x="1120" d="M31 1300v101q0 16 5 24.5t23 8.5h1004q18 0 23.5 -8.5t5.5 -24.5v-101q0 -18 -5.5 -25t-23.5 -7h-412v-1233q0 -23 -8 -29t-29 -6h-116q-20 0 -29.5 6t-9.5 29v1233h-400q-18 0 -23 7t-5 25zM212 1772.5q3 5.5 7 13.5l33 47q8 12 14 12t19 -6l274 -143l268 141 q16 8 22.5 8t14.5 -8l37 -41q10 -10 11 -19.5t-15 -21.5l-252 -201q-27 -20 -48.5 -26t-37.5 -6t-35.5 8t-42.5 24l-264 205q-8 8 -5 13.5z" />
<glyph unicode="&#x165;" horiz-adv-x="849" d="M35 963v59q0 27 28 35l160 30l33 197q4 20 12 26.5t25 14.5l67 25q14 4 22.5 -1.5t8.5 -25.5v-248h227q18 0 23.5 -8t5.5 -23v-81q0 -16 -5 -22.5t-24 -6.5h-227v-664q0 -72 32 -103.5t105 -31.5q27 0 75 5t83 10q18 4 23.5 -1.5t7.5 -15.5l18 -92q2 -12 1 -20.5 t-17 -14.5q-59 -18 -125 -23.5t-94 -5.5q-160 0 -223.5 69t-63.5 212v676h-150q-18 0 -23 8t-5 21zM625 1200l32 369q2 12 8.5 23.5t26.5 11.5h156q23 0 33 -6.5t2 -28.5l-121 -363q-8 -18 -14.5 -26.5t-24.5 -8.5h-70q-20 0 -25 7.5t-3 21.5z" />
<glyph unicode="&#x166;" horiz-adv-x="1120" d="M31 1300v101q0 16 5 24.5t23 8.5h1004q18 0 23.5 -8.5t5.5 -24.5v-101q0 -18 -5.5 -25t-23.5 -7h-414v-379h355q16 0 19 -6t3 -21v-69q0 -16 -3 -21.5t-19 -5.5h-355v-735q0 -20 -6 -25.5t-25 -5.5h-126q-16 0 -24.5 5t-8.5 26v735h-346q-16 0 -19.5 5t-3.5 22v69 q0 14 3 20.5t20 6.5h346v379h-400q-18 0 -23 7t-5 25z" />
<glyph unicode="&#x167;" horiz-adv-x="755" d="M35 963v59q0 27 28 35l160 30l33 197q4 20 12 26.5t25 12.5l67 27q14 4 22.5 -1.5t8.5 -23.5v-250h227q18 0 23.5 -8t5.5 -23v-81q0 -16 -5 -22.5t-24 -6.5h-227v-248h244q16 0 20 -6t4 -23v-65q0 -16 -4 -22.5t-20 -6.5h-244v-293q0 -72 32 -103.5t105 -31.5q27 0 75 5 t83 10q18 4 23.5 -1.5t7.5 -15.5l18 -92q2 -12 1 -20.5t-17 -14.5q-59 -18 -125 -23.5t-94 -5.5q-160 0 -223.5 69t-63.5 212v305h-139q-16 0 -20.5 6t-4.5 23v65q0 16 4 22.5t21 6.5h139v248h-150q-18 0 -23 8t-5 21z" />
<glyph unicode="&#x168;" horiz-adv-x="1392" d="M152 1399q0 23 9 29t25 6h123q18 0 26.5 -6.5t8.5 -28.5v-770q0 -125 15.5 -216t62.5 -151.5t133 -89.5t227 -29q35 0 109 4.5t164 20.5v1231q0 23 8 29t27 6h120q18 0 23.5 -6.5t5.5 -28.5v-1219q0 -72 -31.5 -118t-120.5 -62q-78 -14 -162.5 -19.5t-150.5 -5.5 q-170 0 -288.5 32t-192.5 106.5t-106.5 198.5t-32.5 309zM357.5 1595.5q-5.5 6.5 2.5 20.5q35 61 88.5 102t126.5 41q35 0 69 -11t65.5 -24.5t60.5 -24.5t57 -11q33 0 57.5 16t37.5 43q8 16 13 18t21 -2l78 -30q16 -4 22.5 -10.5t0.5 -20.5q-35 -74 -84 -114t-127 -40 q-37 0 -71 11.5t-66.5 24.5t-64.5 24.5t-64 11.5q-29 0 -52.5 -16.5t-40.5 -40.5q-6 -10 -14 -14.5t-24 3.5l-70 31q-16 6 -21.5 12.5z" />
<glyph unicode="&#x169;" horiz-adv-x="1134" d="M133 489v558q0 20 8.5 25t24.5 5h113q16 0 24 -5t8 -25v-547q0 -92 12.5 -161t46 -114t96 -66.5t163.5 -21.5q23 0 75 3t119 14v893q0 20 7.5 25t25.5 5h113q16 0 24 -5t8 -25v-895q0 -131 -129 -156q-29 -4 -63.5 -7t-69 -5t-67.5 -3t-58 -1q-133 0 -224 27.5t-148.5 88 t-83 157.5t-25.5 236zM222.5 1319q-5.5 6 2.5 20q35 61 88.5 102.5t126.5 41.5q35 0 69 -11.5t65.5 -24.5t60.5 -24.5t57 -11.5q33 0 57.5 16.5t36.5 42.5q8 16 13.5 18.5t21.5 -1.5l78 -31q16 -4 22.5 -10t0.5 -21q-35 -74 -84 -113.5t-127 -39.5q-37 0 -71 11t-66.5 24.5 t-64.5 24.5t-65 11q-29 0 -52 -16t-40 -41q-6 -10 -14 -14t-25 4l-69 31q-16 6 -21.5 12z" />
<glyph unicode="&#x16a;" horiz-adv-x="1392" d="M152 1399q0 23 9 29t25 6h123q18 0 26.5 -6.5t8.5 -28.5v-770q0 -125 15.5 -216t62.5 -151.5t133 -89.5t227 -29q35 0 109 4.5t164 20.5v1231q0 23 8 29t27 6h120q18 0 23.5 -6.5t5.5 -28.5v-1219q0 -72 -31.5 -118t-120.5 -62q-78 -14 -162.5 -19.5t-150.5 -5.5 q-170 0 -288.5 32t-192.5 106.5t-106.5 198.5t-32.5 309zM422 1614v78q0 16 5 24t26 8h491q20 0 25.5 -8t5.5 -24v-78q0 -16 -5 -24.5t-26 -8.5h-491q-20 0 -25.5 8t-5.5 25z" />
<glyph unicode="&#x16b;" horiz-adv-x="1134" d="M133 489v558q0 20 8.5 25t24.5 5h113q16 0 24 -5t8 -25v-547q0 -92 12.5 -161t46 -114t96 -66.5t163.5 -21.5q23 0 75 3t119 14v893q0 20 7.5 25t25.5 5h113q16 0 24 -5t8 -25v-895q0 -131 -129 -156q-29 -4 -63.5 -7t-69 -5t-67.5 -3t-58 -1q-133 0 -224 27.5t-148.5 88 t-83 157.5t-25.5 236zM297 1305v77q0 16 5 24.5t26 8.5h491q20 0 25.5 -8t5.5 -25v-77q0 -16 -5 -24.5t-26 -8.5h-491q-20 0 -25.5 8t-5.5 25z" />
<glyph unicode="&#x16c;" horiz-adv-x="1392" d="M152 1399q0 23 9 29t25 6h123q18 0 26.5 -6.5t8.5 -28.5v-770q0 -125 15.5 -216t62.5 -151.5t133 -89.5t227 -29q35 0 109 4.5t164 20.5v1231q0 23 8 29t27 6h120q18 0 23.5 -6.5t5.5 -28.5v-1219q0 -72 -31.5 -118t-120.5 -62q-78 -14 -162.5 -19.5t-150.5 -5.5 q-170 0 -288.5 32t-192.5 106.5t-106.5 198.5t-32.5 309zM368 1736.5q-3 10.5 13 22.5l39 35q18 10 24.5 7t20.5 -15q59 -66 123.5 -102.5t124.5 -36.5q45 0 104.5 27.5t143.5 117.5q16 14 22 13t16 -7l41 -33q16 -16 13.5 -26t-6.5 -17q-86 -117 -175 -167t-167 -50 q-102 0 -186.5 63.5t-143.5 151.5q-4 6 -7 16.5z" />
<glyph unicode="&#x16d;" horiz-adv-x="1134" d="M133 489v558q0 20 8.5 25t24.5 5h113q16 0 24 -5t8 -25v-547q0 -92 12.5 -161t46 -114t96 -66.5t163.5 -21.5q23 0 75 3t119 14v893q0 20 7.5 25t25.5 5h113q16 0 24 -5t8 -25v-895q0 -131 -129 -156q-29 -4 -63.5 -7t-69 -5t-67.5 -3t-58 -1q-133 0 -224 27.5t-148.5 88 t-83 157.5t-25.5 236zM228.5 1433.5q-3.5 10.5 13.5 22.5l39 35q18 10 24 7t21 -15q59 -66 123.5 -103t123.5 -37q45 0 104.5 28t143.5 118q16 14 22.5 13t16.5 -7l41 -33q16 -16 13 -26.5t-7 -16.5q-86 -117 -175 -167t-167 -50q-102 0 -186 63.5t-143 151.5 q-4 6 -7.5 16.5z" />
<glyph unicode="&#x16e;" horiz-adv-x="1392" d="M152 1399q0 23 9 29t25 6h123q18 0 26.5 -6.5t8.5 -28.5v-770q0 -125 15.5 -216t62.5 -151.5t133 -89.5t227 -29q35 0 109 4.5t164 20.5v1231q0 23 8 29t27 6h120q18 0 23.5 -6.5t5.5 -28.5v-1219q0 -72 -31.5 -118t-120.5 -62q-78 -14 -162.5 -19.5t-150.5 -5.5 q-170 0 -288.5 32t-192.5 106.5t-106.5 198.5t-32.5 309zM508 1679q0 82 57.5 136.5t143.5 54.5q84 0 141 -53.5t57 -137.5t-57 -137t-141 -53q-86 0 -143.5 52t-57.5 138zM600 1679q0 -47 31 -76.5t78 -29.5t76.5 29.5t29.5 76.5t-29.5 77t-76.5 30t-78 -30t-31 -77z" />
<glyph unicode="&#x16f;" horiz-adv-x="1134" d="M133 489v558q0 20 8.5 25t24.5 5h113q16 0 24 -5t8 -25v-547q0 -92 12.5 -161t46 -114t96 -66.5t163.5 -21.5q23 0 75 3t119 14v893q0 20 7.5 25t25.5 5h113q16 0 24 -5t8 -25v-895q0 -131 -129 -156q-29 -4 -63.5 -7t-69 -5t-67.5 -3t-58 -1q-133 0 -224 27.5t-148.5 88 t-83 157.5t-25.5 236zM377 1389q0 82 57.5 136t143.5 54q84 0 141 -53t57 -137t-57 -137.5t-141 -53.5q-86 0 -143.5 52.5t-57.5 138.5zM469 1389q0 -47 30.5 -77t78.5 -30q47 0 76.5 30t29.5 77t-29.5 76.5t-76.5 29.5t-78 -29.5t-31 -76.5z" />
<glyph unicode="&#x170;" horiz-adv-x="1392" d="M152 1399q0 23 9 29t25 6h123q18 0 26.5 -6.5t8.5 -28.5v-770q0 -125 15.5 -216t62.5 -151.5t133 -89.5t227 -29q35 0 109 4.5t164 20.5v1231q0 23 8 29t27 6h120q18 0 23.5 -6.5t5.5 -28.5v-1219q0 -72 -31.5 -118t-120.5 -62q-78 -14 -162.5 -19.5t-150.5 -5.5 q-170 0 -288.5 32t-192.5 106.5t-106.5 198.5t-32.5 309zM407 1621q1 7 17 17l283 207q10 8 20 10.5t23 -12.5l88 -106q12 -10 9 -19.5t-13 -13.5l-328 -154q-20 -8 -28.5 -5t-18.5 14l-43 43q-10 12 -9 19zM779 1621q1 7 18 17l282 207q10 8 19.5 10.5t23.5 -12.5l88 -106 q12 -10 9.5 -19.5t-13.5 -13.5l-329 -154q-18 -8 -26.5 -5t-19.5 14l-43 43q-10 12 -9 19z" />
<glyph unicode="&#x171;" horiz-adv-x="1134" d="M133 489v558q0 20 8.5 25t24.5 5h113q16 0 24 -5t8 -25v-547q0 -92 12.5 -161t46 -114t96 -66.5t163.5 -21.5q23 0 75 3t119 14v893q0 20 7.5 25t25.5 5h113q16 0 24 -5t8 -25v-895q0 -131 -129 -156q-29 -4 -63.5 -7t-69 -5t-67.5 -3t-58 -1q-133 0 -224 27.5t-148.5 88 t-83 157.5t-25.5 236zM337 1229q-3 6 5 24l135 316q4 10 12.5 16t26.5 4l143 -37q16 -4 18.5 -13t-5.5 -19l-217 -308q-10 -16 -18.5 -18t-22.5 2l-60 23q-14 4 -17 10zM613.5 1229q-3.5 6 4.5 24l136 316q4 10 12 16t27 4l141 -37q16 -4 18 -13t-4 -19l-217 -308 q-10 -16 -19.5 -18t-23.5 2l-57 23q-14 4 -17.5 10z" />
<glyph unicode="&#x172;" horiz-adv-x="1392" d="M152 1399q0 23 9 29t25 6h123q18 0 26.5 -6.5t8.5 -28.5v-770q0 -125 15.5 -216t62.5 -151.5t133 -89.5t227 -29q35 0 109 4.5t164 20.5v1231q0 23 8 29t27 6h120q18 0 23.5 -6.5t5.5 -28.5v-1219q0 -72 -31.5 -118t-120.5 -62q-66 -10 -138 -16.5t-134 -8.5 q-51 -59 -79.5 -118.5t-28.5 -106.5q0 -41 26.5 -57.5t79.5 -16.5q16 0 46 5.5t59 13.5q14 4 20 3t10 -15l15 -39q4 -14 -0.5 -21.5t-12.5 -11.5q-29 -14 -83 -27.5t-109 -13.5q-104 0 -148.5 44t-44.5 105q-2 68 35 138.5t94 119.5q-147 6 -250.5 43t-168 112t-93 194.5 t-28.5 294.5z" />
<glyph unicode="&#x173;" horiz-adv-x="1134" d="M133 489v558q0 20 8.5 25t24.5 5h113q16 0 24 -5t8 -25v-547q0 -92 12.5 -161t46 -114t96 -66.5t163.5 -21.5q23 0 75 3t119 14v893q0 20 7.5 25t25.5 5h113q16 0 24 -5t8 -25v-895q0 -104 -77 -142q-57 -63 -90 -126.5t-33 -112.5q0 -41 26.5 -57.5t79.5 -16.5 q16 0 46 5t59 13q14 4 20 3t10 -15l15 -39q4 -14 0 -21.5t-13 -11.5q-29 -14 -83 -27.5t-109 -13.5q-104 0 -148.5 44t-44.5 106q-2 63 31 130t86 116q-45 -4 -88 -5t-74 -1q-133 0 -224 27.5t-148.5 88t-83 157.5t-25.5 236z" />
<glyph unicode="&#x174;" horiz-adv-x="1703" d="M33 1409q-8 27 16 27h146q31 0 34 -25l162 -856l60 -332h12l72 332l176 791q8 37 29.5 63.5t78.5 26.5h80q47 0 67.5 -25t30.5 -65l172 -783l72 -340h10l66 342l162 846q6 25 34 25h142q25 0 16 -27l-282 -1333q-10 -47 -36 -61.5t-69 -14.5h-88q-41 0 -60.5 23.5 t-29.5 66.5l-184 819l-66 314h-6l-68 -316l-186 -817q-10 -41 -29.5 -65.5t-60.5 -24.5h-88q-43 0 -68.5 14.5t-36.5 61.5zM518 1569q-14 18 0 30l254 205q43 35 80 35q16 0 36.5 -5t49.5 -30l244 -205q20 -18 4 -38l-29 -35q-8 -10 -17.5 -7t-25.5 11l-264 133l-262 -137 q-12 -6 -19.5 -5t-17.5 11z" />
<glyph unicode="&#x175;" horiz-adv-x="1495" d="M35 1057q-6 23 16 22h137q14 0 18.5 -5t8.5 -15l117 -592l55 -283h10l76 258l148 514q8 29 28.5 53.5t71.5 24.5h61q45 0 61.5 -22.5t26.5 -61.5l142 -477l88 -303h10l55 301l117 588q4 10 8 15t19 5h137q23 0 16 -22l-217 -975q-14 -59 -41.5 -75.5t-62.5 -16.5h-72 q-47 0 -66.5 17.5t-33.5 66.5l-129 426l-88 327h-9l-90 -338l-129 -415q-12 -39 -32.5 -61.5t-67.5 -22.5h-78q-35 0 -59.5 16.5t-36.5 75.5zM406 1257l264 267q39 37 78 37q27 0 45 -7.5t41 -29.5l251 -262q14 -16 13.5 -25.5t-11.5 -19.5l-34 -31q-18 -12 -41 4l-264 192 l-263 -196q-23 -16 -41 4l-36 39q-16 12 -2 28z" />
<glyph unicode="&#x176;" horiz-adv-x="1155" d="M24 1427.5q3 8.5 17 8.5h152q16 0 24 -5.5t16 -21.5l187 -352l160 -316h8l168 328l180 340q12 27 41 27h141q12 0 14.5 -8.5t0.5 -14.5l-459 -840v-542q0 -20 -7.5 -25.5t-23.5 -5.5h-119q-16 0 -24 5t-8 26v542l-467 840q-4 6 -1 14.5zM250 1569q-14 18 0 30l254 205 q43 35 80 35q16 0 36.5 -5t49.5 -30l243 -205q20 -18 5 -38l-29 -35q-8 -10 -17.5 -7t-25.5 11l-264 133l-263 -137q-12 -6 -19 -5t-17 11z" />
<glyph unicode="&#x177;" horiz-adv-x="1003" d="M23 1053q-6 23 18 22h137q23 0 29 -20q4 -14 17.5 -56.5t31.5 -98.5t38.5 -120.5t39 -121t32 -99.5t17.5 -55l104 -361h13q6 16 24.5 73.5t38 122t36.5 117t19 56.5t13.5 38t29 85t38 111.5t40 120t37 109.5t27.5 79q6 20 28 20h132q25 0 18 -22l-414 -1229 q-47 -141 -120.5 -196.5t-188.5 -55.5q-29 0 -72 4t-94 18q-33 8 -24 33l22 90q4 16 12.5 19.5t22.5 -0.5q39 -10 58.5 -13.5t45.5 -3.5q70 0 113 28t70 110q2 6 10 28.5t17.5 48t16.5 48t9 28.5h-39q-29 0 -50.5 9.5t-37.5 62.5zM168 1266l264 266q39 37 78 37 q27 0 45 -7.5t41 -29.5l252 -262q14 -16 13 -25.5t-11 -19.5l-35 -31q-18 -12 -41 4l-264 193l-262 -197q-23 -16 -41 4l-37 39q-16 12 -2 29z" />
<glyph unicode="&#x178;" horiz-adv-x="1155" d="M24 1427.5q3 8.5 17 8.5h152q16 0 24 -5.5t16 -21.5l187 -352l160 -316h8l168 328l180 340q12 27 41 27h141q12 0 14.5 -8.5t0.5 -14.5l-459 -840v-542q0 -20 -7.5 -25.5t-23.5 -5.5h-119q-16 0 -24 5t-8 26v542l-467 840q-4 6 -1 14.5zM285 1673q0 41 34.5 75t77.5 34 q41 0 76 -34t35 -75q0 -43 -35 -76.5t-76 -33.5q-43 0 -77.5 33.5t-34.5 76.5zM655 1673q0 41 34 75t77 34t78 -33t35 -76t-35 -76.5t-76 -33.5q-45 0 -79 33.5t-34 76.5z" />
<glyph unicode="&#x179;" horiz-adv-x="1245" d="M59 90v29q0 37 10.5 60.5t32.5 49.5q16 23 82 103t156 187.5t190.5 229t190.5 229t154.5 186.5t82.5 102l-4 6h-757q-20 0 -25.5 8t-5.5 25v98q0 16 5 24.5t26 8.5h852q53 0 80.5 -21.5t27.5 -75.5v-39q0 -37 -15.5 -64.5t-39.5 -55.5q-16 -20 -80 -97t-150 -182.5 t-184 -224.5t-184 -223.5t-149.5 -181t-80.5 -97.5q4 -4 5 -12h862q18 0 23 -7.5t5 -25.5v-96q0 -16 -5 -24.5t-23 -8.5h-981q-100 0 -101 90zM505 1610.5q1 7.5 15 17.5l287 207q10 8 21.5 11t21.5 -13l86 -117q16 -23 -4 -33l-346 -157q-18 -8 -24.5 -4t-14.5 14l-35 55 q-8 12 -7 19.5z" />
<glyph unicode="&#x17a;" horiz-adv-x="942" d="M39 70v30q0 27 7 53.5t30 51.5l624 719l-2 6h-577q-18 0 -24.5 6t-6.5 22v86q0 14 5 22.5t26 8.5h696q47 0 66.5 -18.5t19.5 -59.5v-30q0 -23 -7 -46.5t-26 -46.5l-628 -724l2 -5h626q23 0 28 -8t5 -20v-86q0 -16 -6 -23.5t-27 -7.5h-751q-47 0 -63.5 20.5t-16.5 49.5z M406.5 1229q-3.5 6 7.5 24l135 316q4 10 12 16t27 4l141 -37q16 -4 18.5 -13t-6.5 -19l-217 -308q-10 -16 -18 -18t-25 2l-57 23q-14 4 -17.5 10z" />
<glyph unicode="&#x17b;" horiz-adv-x="1245" d="M59 90v29q0 37 10.5 60.5t32.5 49.5q16 23 82 103t156 187.5t190.5 229t190.5 229t154.5 186.5t82.5 102l-4 6h-757q-20 0 -25.5 8t-5.5 25v98q0 16 5 24.5t26 8.5h852q53 0 80.5 -21.5t27.5 -75.5v-39q0 -37 -15.5 -64.5t-39.5 -55.5q-16 -20 -80 -97t-150 -182.5 t-184 -224.5t-184 -223.5t-149.5 -181t-80.5 -97.5q4 -4 5 -12h862q18 0 23 -7.5t5 -25.5v-96q0 -16 -5 -24.5t-23 -8.5h-981q-100 0 -101 90zM547 1649q0 47 35.5 81.5t83.5 34.5q47 0 80.5 -34.5t33.5 -81.5t-33.5 -81t-80.5 -34t-83 34t-36 81z" />
<glyph unicode="&#x17c;" horiz-adv-x="942" d="M39 70v30q0 27 7 53.5t30 51.5l624 719l-2 6h-577q-18 0 -24.5 6t-6.5 22v86q0 14 5 22.5t26 8.5h696q47 0 66.5 -18.5t19.5 -59.5v-30q0 -23 -7 -46.5t-26 -46.5l-628 -724l2 -5h626q23 0 28 -8t5 -20v-86q0 -16 -6 -23.5t-27 -7.5h-751q-47 0 -63.5 20.5t-16.5 49.5z M389 1370q0 47 36 82t83 35t81 -35t34 -82t-34 -81t-81 -34t-83 34t-36 81z" />
<glyph unicode="&#x17d;" horiz-adv-x="1245" d="M59 90v29q0 37 10.5 60.5t32.5 49.5q16 23 82 103t156 187.5t190.5 229t190.5 229t154.5 186.5t82.5 102l-4 6h-757q-20 0 -25.5 8t-5.5 25v98q0 16 5 24.5t26 8.5h852q53 0 80.5 -21.5t27.5 -75.5v-39q0 -37 -15.5 -64.5t-39.5 -55.5q-16 -20 -80 -97t-150 -182.5 t-184 -224.5t-184 -223.5t-149.5 -181t-80.5 -97.5q4 -4 5 -12h862q18 0 23 -7.5t5 -25.5v-96q0 -16 -5 -24.5t-23 -8.5h-981q-100 0 -101 90zM325 1772.5q3 5.5 7 13.5l33 47q8 12 14 12t18 -6l275 -143l268 141q16 8 22.5 8t14.5 -8l37 -41q10 -10 11 -19.5t-15 -21.5 l-252 -201q-27 -20 -48.5 -26t-37.5 -6t-36 8t-42 24l-264 205q-8 8 -5 13.5z" />
<glyph unicode="&#x17e;" horiz-adv-x="942" d="M39 70v30q0 27 7 53.5t30 51.5l624 719l-2 6h-577q-18 0 -24.5 6t-6.5 22v86q0 14 5 22.5t26 8.5h696q47 0 66.5 -18.5t19.5 -59.5v-30q0 -23 -7 -46.5t-26 -46.5l-628 -724l2 -5h626q23 0 28 -8t5 -20v-86q0 -16 -6 -23.5t-27 -7.5h-751q-47 0 -63.5 20.5t-16.5 49.5z M154 1491q-14 16 2 29l39 36q18 16 41 5l260 -195l264 193q23 16 41 4l35 -31q10 -10 11 -19.5t-13 -25.5l-252 -262q-23 -23 -41.5 -30t-44.5 -7q-39 0 -78 37z" />
<glyph unicode="&#x192;" d="M94.5 -138.5q-0.5 7.5 3.5 19.5l27 90q8 25 31 19q39 -8 65.5 -10.5t52.5 -2.5q43 0 72 18.5t48.5 49.5t31.5 73t23 89q12 59 24 130t23.5 143.5t20.5 140t18 120.5h-175q-18 0 -21 8.5t-1 20.5v68q0 37 35 36h182q4 29 8 67t15 81q10 63 30.5 132t60.5 125t103.5 92 t159.5 36q29 0 82 -3t110 -22q14 -4 14.5 -13t-1.5 -19l-15 -93q-2 -12 -12 -17t-20 -1q-78 14 -136 14q-102 0 -145 -57t-64 -164q-10 -53 -13 -85t-11 -73h231q16 0 21.5 -6t5.5 -22l-2 -76q-2 -12 -9 -20.5t-26 -8.5h-237q-10 -59 -20.5 -128.5t-22 -142.5t-22.5 -142.5 t-24 -126.5q-18 -88 -40.5 -158t-59.5 -119t-94 -75.5t-150 -26.5q-37 0 -83 6t-80 20q-14 6 -14.5 13.5z" />
<glyph unicode="&#x1a0;" horiz-adv-x="1531" d="M113 715q0 178 46 316t127 232.5t192.5 143.5t242.5 49q297 0 457 -196q84 6 126 54t42 177v86q0 23 9 28t25 5h82q31 0 31 -33v-92q0 -141 -55.5 -233.5t-184.5 -118.5q78 -172 78 -410q0 -360 -154.5 -553t-459.5 -193q-303 0 -453.5 190.5t-150.5 547.5zM301 723 q0 -127 20.5 -232.5t68.5 -182.5t128 -120t201 -43q119 0 199.5 47.5t130 127t70 182t20.5 213.5q0 113 -17.5 216t-63.5 183t-126 127t-205 47q-111 0 -190.5 -45t-132 -123t-78 -180t-25.5 -217z" />
<glyph unicode="&#x1a1;" horiz-adv-x="1275" d="M92 537q0 135 36 239.5t100.5 176t152.5 108.5t190 37q131 0 227.5 -47t155.5 -138q84 4 126 53.5t42 178.5v86q0 23 9.5 28t25.5 5h82q31 0 31 -33v-92q0 -147 -59.5 -241.5t-198.5 -117.5q37 -102 37 -237q0 -274 -124 -420t-360 -146q-231 0 -352 141.5t-121 418.5z M270 543q0 -92 14.5 -169t49.5 -131.5t91 -85t142 -30.5t144.5 35t93.5 92t49 131t14 152q0 80 -12 154.5t-45 131t-90 91t-148 34.5q-78 0 -135 -32.5t-94 -88t-55.5 -129t-18.5 -155.5z" />
<glyph unicode="&#x1af;" horiz-adv-x="1587" d="M154 621v782q0 20 5 25.5t15 5.5h145q12 0 18.5 -5.5t6.5 -25.5v-774q0 -125 15.5 -216t62.5 -151.5t133 -89.5t227 -29q35 0 109 4.5t164 20.5v1235q0 20 5 25.5t17 5.5h144q10 0 14 -5.5t4 -25.5v-143h14q49 0 84 10t56.5 35.5t32 70.5t10.5 115v86q0 23 9 28t25 5h82 q31 0 31 -33v-92q0 -84 -16.5 -150.5t-55 -113.5t-100 -73t-154.5 -26h-18v-942q0 -72 -31.5 -118t-120.5 -62q-78 -14 -162.5 -19.5t-150.5 -5.5q-170 0 -288.5 32t-192.5 106.5t-106.5 198.5t-32.5 309z" />
<glyph unicode="&#x1b0;" horiz-adv-x="1345" d="M133 489v558q0 20 8.5 25t24.5 5h113q16 0 24 -5t8 -25v-547q0 -92 12.5 -161t46 -114t96 -66.5t163.5 -21.5q23 0 75 3t119 14v893q0 20 7.5 25t25.5 5h113q16 0 24 -5t8 -25v-134h15q43 0 75.5 10.5t54 36t33 70.5t11.5 117v84q0 23 9 28t26 5h82q31 0 30 -33v-90 q0 -84 -17 -151.5t-55 -115t-98.5 -73t-146.5 -25.5h-19v-624q0 -131 -129 -156q-29 -4 -63.5 -7t-69 -5t-67.5 -3t-58 -1q-133 0 -224 27.5t-148.5 88t-83 157.5t-25.5 236z" />
<glyph unicode="&#x1fc;" horiz-adv-x="1746" d="M35 29l407 1185q14 41 37 81t63 71t99 50.5t147 19.5h832q20 0 25.5 -9.5t5.5 -25.5v-103q0 -18 -5.5 -25t-25.5 -7h-502q-92 0 -131 -40t-39 -126v-258h611q20 0 25 -8.5t5 -26.5v-94q0 -16 -5 -25.5t-25 -9.5h-611v-344q0 -72 38 -118t132 -46h518q20 0 25.5 -8 t5.5 -25v-106q0 -16 -5 -23.5t-26 -7.5h-534q-90 0 -153.5 23.5t-104.5 66.5t-60.5 104.5t-21.5 139.5h-424l-100 -307q-8 -27 -39 -27h-146q-29 0 -18 29zM387 485h377v592q0 55 8 113.5t25 83.5q-51 0 -85 -9.5t-57.5 -24.5t-36 -36.5t-20.5 -44.5l-74 -225zM941 1610.5 q1 7.5 15 17.5l287 207q10 8 21.5 11t21.5 -13l86 -117q16 -23 -4 -33l-346 -157q-18 -8 -24.5 -4t-14.5 14l-35 55q-8 12 -7 19.5z" />
<glyph unicode="&#x1fd;" horiz-adv-x="1767" d="M92 299q0 61 19.5 123.5t66.5 113t126 81t198 30.5h262q27 158 -37.5 226.5t-204.5 68.5q-72 0 -149.5 -12t-130.5 -29q-16 -6 -25.5 -4t-13.5 18l-25 89q-6 25 17 34q78 33 176 46.5t180 13.5q135 0 217 -41t121 -123q63 80 152.5 122t193.5 42q111 0 191.5 -32t136 -88 t83 -136t31.5 -176q2 -49 -10 -80t-33.5 -49.5t-50.5 -25.5t-59 -7h-588q2 -115 27.5 -186.5t69.5 -112.5t102.5 -56.5t126.5 -15.5t133 17.5t108 39.5q25 14 39 -10l43 -86q14 -31 -10 -41q-76 -45 -161 -60.5t-167 -15.5q-96 0 -177 29t-142 76q-98 -57 -220 -81t-221 -24 q-133 0 -210.5 30t-118.5 77t-53.5 104.5t-12.5 110.5zM270 297q0 -86 56.5 -132t167.5 -46q18 0 57 3t86 11t96 23.5t92 40.5q-35 59 -51 131.5t-18 175.5h-234q-41 0 -85 -8.5t-81 -31t-61.5 -62.5t-24.5 -105zM832.5 1229q-3.5 6 7.5 24l135 316q4 10 12 16t27 4l141 -37 q16 -4 18.5 -13t-6.5 -19l-217 -308q-10 -16 -18 -18t-25 2l-57 23q-14 4 -17.5 10zM942 647h567q0 53 -12 107.5t-43 97.5t-85 69.5t-138 26.5q-129 0 -204 -85t-85 -216z" />
<glyph unicode="&#x1fe;" horiz-adv-x="1443" d="M113 715q0 178 46 316t127 232.5t192.5 143.5t242.5 49q242 0 393 -133l100 133q18 25 39 4l37 -26q10 -10 11.5 -16.5t-9.5 -20.5l-110 -144q76 -96 112.5 -229t36.5 -301q0 -360 -154.5 -553t-459.5 -193q-252 0 -398 134l-86 -113q-10 -14 -18 -13t-18 9l-39 24 q-18 12 -2 37l96 129q-139 186 -139 531zM301 723q0 -115 16.5 -211t57.5 -170l631 838q-47 51 -116 79.5t-163 28.5q-111 0 -190.5 -45t-132 -123t-78 -180t-25.5 -217zM430 258q49 -53 122 -83t173 -30q121 0 201 47.5t127 127t66.5 182t19.5 213.5q0 106 -15.5 205.5 t-56.5 177.5zM634 1610.5q1 7.5 15 17.5l287 207q10 8 21.5 11t21.5 -13l86 -117q16 -23 -4 -33l-346 -157q-18 -8 -24.5 -4t-14.5 14l-35 55q-8 12 -7 19.5z" />
<glyph unicode="&#x1ff;" horiz-adv-x="1140" d="M92 537q0 135 36 239.5t100.5 176t152.5 108.5t190 37q199 0 322 -113l80 92q10 10 16 9t17 -7l34 -32q16 -10 0 -29l-88 -103q96 -143 97 -372q0 -274 -124 -420t-360 -146q-102 0 -183 28t-138 83l-72 -82q-16 -18 -31 -2l-35 31q-20 14 0 33l76 90q-90 135 -90 379z M270 543q0 -70 8.5 -131.5t28.5 -110.5l477 559q-35 41 -86 64.5t-125 23.5q-78 0 -135 -32.5t-94 -88t-55.5 -129t-18.5 -155.5zM352 215q72 -88 215 -88q86 0 144.5 35t93.5 92t49 131t14 152q0 66 -8 126t-29 113zM511 1229q-3 6 7 24l135 316q4 10 12.5 16t26.5 4 l142 -37q16 -4 18 -13t-6 -19l-217 -308q-10 -16 -18.5 -18t-24.5 2l-58 23q-14 4 -17 10z" />
<glyph unicode="&#x218;" horiz-adv-x="1167" d="M78 125l49 108q10 23 33 13q106 -47 220 -73t208 -26q156 0 243 58.5t87 169.5q0 53 -22 93t-63.5 73.5t-105 63.5t-147.5 61q-113 41 -198 81.5t-141.5 89t-85 108t-28.5 136.5q0 168 115.5 272.5t339.5 104.5q102 0 215.5 -19.5t212.5 -62.5q23 -10 14 -35l-45 -114 q-6 -14 -11 -16.5t-16 1.5q-104 41 -199.5 58.5t-177.5 17.5q-123 0 -190.5 -54t-67.5 -138q0 -51 22.5 -88t67 -68t112 -59.5t159.5 -65.5q86 -33 164 -68.5t137 -85t95 -117t36 -161.5q0 -102 -39 -178t-106.5 -127t-159.5 -76t-199 -25q-59 0 -124.5 5.5t-133 17.5 t-134.5 32.5t-128 51.5q-23 12 -8 41zM461 -541l33 369q2 12 8 23.5t26 11.5h156q23 0 33 -6.5t2 -28.5l-121 -363q-8 -18 -14 -26t-25 -8h-70q-20 0 -25 7t-3 21z" />
<glyph unicode="&#x219;" horiz-adv-x="950" d="M73 75.5q-5 10.5 3 26.5l39 84q6 16 15 20.5t30 -3.5q82 -39 169 -56.5t158 -17.5q98 0 155.5 40t57.5 114q0 76 -65.5 118.5t-185.5 85.5q-86 31 -148.5 62t-102.5 66.5t-58.5 80.5t-18.5 107q0 129 93 212t271 83q84 0 163 -13.5t159 -46.5q25 -12 16 -39l-39 -96 q-6 -12 -13 -12t-17 4q-82 31 -142.5 41t-130.5 10q-92 0 -139 -39t-47 -94q0 -35 13.5 -60.5t42 -47t75.5 -42t113 -45.5q63 -25 123.5 -51t106.5 -64t74.5 -89t28.5 -123q0 -80 -29.5 -138.5t-81.5 -97.5t-123 -58.5t-151 -19.5q-96 0 -204.5 18.5t-192.5 63.5 q-12 6 -17 16.5zM348 -541l33 369q2 12 8 23.5t27 11.5h155q23 0 33 -6.5t2 -28.5l-121 -363q-8 -18 -14 -26t-25 -8h-69q-20 0 -25.5 7t-3.5 21z" />
<glyph unicode="&#x2c6;" horiz-adv-x="1161" d="M238 1257l264 267q39 37 78 37q27 0 45 -7.5t41 -29.5l252 -262q14 -16 13 -25.5t-11 -19.5l-35 -31q-18 -12 -41 4l-264 192l-263 -196q-23 -16 -41 4l-36 39q-16 12 -2 28z" />
<glyph unicode="&#x2da;" horiz-adv-x="1085" d="M383 1384q0 82 58.5 136.5t142.5 54.5q86 0 142 -53.5t56 -137.5q0 -82 -56 -136t-142 -54q-84 0 -142.5 53t-58.5 137zM475 1384q0 -47 31 -76.5t78 -29.5t76.5 29.5t29.5 76.5t-29.5 77t-76.5 30t-78 -29.5t-31 -77.5z" />
<glyph unicode="&#x2dc;" horiz-adv-x="1157" d="M232.5 1317q-5.5 6 3.5 20q35 61 88 102.5t127 41.5q35 0 68.5 -11.5t65 -24.5t60.5 -24.5t57 -11.5q33 0 57.5 16.5t37.5 42.5q8 16 13 18.5t21 -1.5l78 -31q16 -4 22.5 -10t0.5 -21q-35 -74 -84 -113.5t-127 -39.5q-37 0 -71 11t-66.5 24.5t-64.5 24.5t-64 11 q-29 0 -52.5 -16t-40.5 -41q-6 -10 -14 -14t-24 4l-70 31q-16 6 -21.5 12z" />
<glyph unicode="&#x1e80;" horiz-adv-x="1703" d="M33 1409q-8 27 16 27h146q31 0 34 -25l162 -856l60 -332h12l72 332l176 791q8 37 29.5 63.5t78.5 26.5h80q47 0 67.5 -25t30.5 -65l172 -783l72 -340h10l66 342l162 846q6 25 34 25h142q25 0 16 -27l-282 -1333q-10 -47 -36 -61.5t-69 -14.5h-88q-41 0 -60.5 23.5 t-29.5 66.5l-184 819l-66 314h-6l-68 -316l-186 -817q-10 -41 -29.5 -65.5t-60.5 -24.5h-88q-43 0 -68.5 14.5t-36.5 61.5zM528 1716l86 121q10 16 20.5 11t20.5 -13l289 -207q14 -10 14 -17t-8 -20l-37 -59q-8 -10 -17 -10t-26 8l-338 153q-20 8 -4 33z" />
<glyph unicode="&#x1e81;" horiz-adv-x="1495" d="M35 1057q-6 23 16 22h137q14 0 18.5 -5t8.5 -15l117 -592l55 -283h10l76 258l148 514q8 29 28.5 53.5t71.5 24.5h61q45 0 61.5 -22.5t26.5 -61.5l142 -477l88 -303h10l55 301l117 588q4 10 8 15t19 5h137q23 0 16 -22l-217 -975q-14 -59 -41.5 -75.5t-62.5 -16.5h-72 q-47 0 -66.5 17.5t-33.5 66.5l-129 426l-88 327h-9l-90 -338l-129 -415q-12 -39 -32.5 -61.5t-67.5 -22.5h-78q-35 0 -59.5 16.5t-36.5 75.5zM469 1539q2 9 18 13l144 37q29 2 39 -20l133 -316q10 -18 7 -24t-17 -10l-60 -23q-12 -4 -21.5 -2t-19.5 18l-217 308q-8 10 -6 19 z" />
<glyph unicode="&#x1e82;" horiz-adv-x="1703" d="M33 1409q-8 27 16 27h146q31 0 34 -25l162 -856l60 -332h12l72 332l176 791q8 37 29.5 63.5t78.5 26.5h80q47 0 67.5 -25t30.5 -65l172 -783l72 -340h10l66 342l162 846q6 25 34 25h142q25 0 16 -27l-282 -1333q-10 -47 -36 -61.5t-69 -14.5h-88q-41 0 -60.5 23.5 t-29.5 66.5l-184 819l-66 314h-6l-68 -316l-186 -817q-10 -41 -29.5 -65.5t-60.5 -24.5h-88q-43 0 -68.5 14.5t-36.5 61.5zM755 1610.5q1 7.5 15 17.5l287 207q10 8 21.5 11t21.5 -13l86 -117q16 -23 -4 -33l-346 -157q-18 -8 -24.5 -4t-14.5 14l-35 55q-8 12 -7 19.5z" />
<glyph unicode="&#x1e83;" horiz-adv-x="1495" d="M35 1057q-6 23 16 22h137q14 0 18.5 -5t8.5 -15l117 -592l55 -283h10l76 258l148 514q8 29 28.5 53.5t71.5 24.5h61q45 0 61.5 -22.5t26.5 -61.5l142 -477l88 -303h10l55 301l117 588q4 10 8 15t19 5h137q23 0 16 -22l-217 -975q-14 -59 -41.5 -75.5t-62.5 -16.5h-72 q-47 0 -66.5 17.5t-33.5 66.5l-129 426l-88 327h-9l-90 -338l-129 -415q-12 -39 -32.5 -61.5t-67.5 -22.5h-78q-35 0 -59.5 16.5t-36.5 75.5zM667 1229q-3 6 7 24l135 316q4 10 12 16t27 4l141 -37q16 -4 18.5 -13t-6.5 -19l-217 -308q-10 -16 -18 -18t-25 2l-57 23 q-14 4 -17 10z" />
<glyph unicode="&#x1e84;" horiz-adv-x="1703" d="M33 1409q-8 27 16 27h146q31 0 34 -25l162 -856l60 -332h12l72 332l176 791q8 37 29.5 63.5t78.5 26.5h80q47 0 67.5 -25t30.5 -65l172 -783l72 -340h10l66 342l162 846q6 25 34 25h142q25 0 16 -27l-282 -1333q-10 -47 -36 -61.5t-69 -14.5h-88q-41 0 -60.5 23.5 t-29.5 66.5l-184 819l-66 314h-6l-68 -316l-186 -817q-10 -41 -29.5 -65.5t-60.5 -24.5h-88q-43 0 -68.5 14.5t-36.5 61.5zM553 1669q0 41 35 75t78 34q41 0 75.5 -34t34.5 -75q0 -43 -34.5 -76.5t-75.5 -33.5q-43 0 -78 33.5t-35 76.5zM924 1669q0 41 33.5 75t76.5 34 t78 -33t35 -76t-35 -76.5t-76 -33.5q-45 0 -78.5 33.5t-33.5 76.5z" />
<glyph unicode="&#x1e85;" horiz-adv-x="1495" d="M35 1057q-6 23 16 22h137q14 0 18.5 -5t8.5 -15l117 -592l55 -283h10l76 258l148 514q8 29 28.5 53.5t71.5 24.5h61q45 0 61.5 -22.5t26.5 -61.5l142 -477l88 -303h10l55 301l117 588q4 10 8 15t19 5h137q23 0 16 -22l-217 -975q-14 -59 -41.5 -75.5t-62.5 -16.5h-72 q-47 0 -66.5 17.5t-33.5 66.5l-129 426l-88 327h-9l-90 -338l-129 -415q-12 -39 -32.5 -61.5t-67.5 -22.5h-78q-35 0 -59.5 16.5t-36.5 75.5zM442 1372q0 41 35 75t78 34q41 0 76 -34t35 -75q0 -43 -35 -76.5t-76 -33.5q-43 0 -78 33.5t-35 76.5zM813 1372q0 41 34 75t77 34 t77.5 -33t34.5 -76t-34.5 -76.5t-75.5 -33.5q-45 0 -79 33.5t-34 76.5z" />
<glyph unicode="&#x1ef2;" horiz-adv-x="1155" d="M24 1427.5q3 8.5 17 8.5h152q16 0 24 -5.5t16 -21.5l187 -352l160 -316h8l168 328l180 340q12 27 41 27h141q12 0 14.5 -8.5t0.5 -14.5l-459 -840v-542q0 -20 -7.5 -25.5t-23.5 -5.5h-119q-16 0 -24 5t-8 26v542l-467 840q-4 6 -1 14.5zM311 1716l86 121q10 16 20.5 11 t20.5 -13l289 -207q14 -10 14 -17t-8 -20l-37 -59q-8 -10 -17 -10t-26 8l-338 153q-20 8 -4 33z" />
<glyph unicode="&#x1ef3;" horiz-adv-x="1003" d="M23 1053q-6 23 18 22h137q23 0 29 -20q4 -14 17.5 -56.5t31.5 -98.5t38.5 -120.5t39 -121t32 -99.5t17.5 -55l104 -361h13q6 16 24.5 73.5t38 122t36.5 117t19 56.5t13.5 38t29 85t38 111.5t40 120t37 109.5t27.5 79q6 20 28 20h132q25 0 18 -22l-414 -1229 q-47 -141 -120.5 -196.5t-188.5 -55.5q-29 0 -72 4t-94 18q-33 8 -24 33l22 90q4 16 12.5 19.5t22.5 -0.5q39 -10 58.5 -13.5t45.5 -3.5q70 0 113 28t70 110q2 6 10 28.5t17.5 48t16.5 48t9 28.5h-39q-29 0 -50.5 9.5t-37.5 62.5zM250 1539q2 9 18 13l144 37q29 2 39 -20 l133 -316q10 -18 7 -24t-18 -10l-59 -23q-12 -4 -21.5 -2t-19.5 18l-217 308q-8 10 -6 19z" />
<glyph unicode="&#x2000;" horiz-adv-x="937" />
<glyph unicode="&#x2001;" horiz-adv-x="1875" />
<glyph unicode="&#x2002;" horiz-adv-x="937" />
<glyph unicode="&#x2003;" horiz-adv-x="1875" />
<glyph unicode="&#x2004;" horiz-adv-x="625" />
<glyph unicode="&#x2005;" horiz-adv-x="468" />
<glyph unicode="&#x2006;" horiz-adv-x="312" />
<glyph unicode="&#x2007;" horiz-adv-x="312" />
<glyph unicode="&#x2008;" horiz-adv-x="234" />
<glyph unicode="&#x2009;" horiz-adv-x="375" />
<glyph unicode="&#x200a;" horiz-adv-x="104" />
<glyph unicode="&#x2010;" horiz-adv-x="739" d="M102 516v139q0 16 5.5 24.5t25.5 8.5h475q18 0 23.5 -8t5.5 -25v-139q0 -16 -5 -24.5t-24 -8.5h-475q-20 0 -25.5 8.5t-5.5 24.5z" />
<glyph unicode="&#x2011;" horiz-adv-x="739" d="M102 516v139q0 16 5.5 24.5t25.5 8.5h475q18 0 23.5 -8t5.5 -25v-139q0 -16 -5 -24.5t-24 -8.5h-475q-20 0 -25.5 8.5t-5.5 24.5z" />
<glyph unicode="&#x2012;" horiz-adv-x="739" d="M102 516v139q0 16 5.5 24.5t25.5 8.5h475q18 0 23.5 -8t5.5 -25v-139q0 -16 -5 -24.5t-24 -8.5h-475q-20 0 -25.5 8.5t-5.5 24.5z" />
<glyph unicode="&#x2013;" horiz-adv-x="1024" d="M53 563v99q0 16 5 24t24 8h858q20 0 25.5 -8t5.5 -24v-99q0 -16 -5 -24.5t-26 -8.5h-858q-18 0 -23.5 8.5t-5.5 24.5z" />
<glyph unicode="&#x2014;" horiz-adv-x="2048" d="M47 563v99q0 16 5 24t26 8h1894q18 0 23.5 -8t5.5 -24v-99q0 -16 -5 -24.5t-24 -8.5h-1894q-20 0 -25.5 8.5t-5.5 24.5z" />
<glyph unicode="&#x2015;" horiz-adv-x="2048" d="M47 563v99q0 16 5 24t26 8h1894q18 0 23.5 -8t5.5 -24v-99q0 -16 -5 -24.5t-24 -8.5h-1894q-20 0 -25.5 8.5t-5.5 24.5z" />
<glyph unicode="&#x2018;" horiz-adv-x="593" d="M121 969v10q35 115 68.5 227.5t66.5 227.5q6 20 13 28t28 8h61q37 0 37 -30l-33 -461q-2 -12 -9 -23.5t-25 -11.5h-172q-16 0 -25.5 7t-9.5 18z" />
<glyph unicode="&#x2019;" horiz-adv-x="593" d="M162 973q10 117 17 230.5t16 230.5q2 12 8 24t26 12h170q23 0 31 -9t8 -21v-4l-2 -2q-35 -115 -68.5 -227.5t-68.5 -227.5q-6 -20 -13 -27.5t-28 -7.5h-59q-37 0 -37 29z" />
<glyph unicode="&#x201a;" horiz-adv-x="487" d="M119 -225l33 458q2 12 9 23.5t25 11.5h172q35 0 35 -26v-9q-35 -115 -68.5 -225t-68.5 -227q-6 -20 -12 -27.5t-27 -7.5h-61q-37 0 -37 29z" />
<glyph unicode="&#x201c;" horiz-adv-x="870" d="M121 969v10q35 115 68.5 227.5t66.5 227.5q6 20 13 28t28 8h61q37 0 37 -30l-33 -461q-2 -12 -9 -23.5t-25 -11.5h-172q-16 0 -25.5 7t-9.5 18zM471 973v6l139 455q6 20 11.5 28t27.5 8h62q35 0 34 -24v-6l-30 -461q-2 -12 -8.5 -23.5t-26.5 -11.5h-172q-18 0 -27.5 9.5 t-9.5 19.5z" />
<glyph unicode="&#x201d;" horiz-adv-x="870" d="M121 971q0 6 1 11t1 13q8 111 14 219.5t17 219.5q2 12 8 24t24 12h174q16 0 25.5 -9t9.5 -19v-8l-139 -455q-6 -20 -11 -27.5t-28 -7.5h-61q-35 0 -35 27zM471 973l33 461q2 12 9 24t26 12h172q37 0 37 -26q0 -4 -1.5 -5t-1.5 -3v-2q-35 -115 -68.5 -227.5t-66.5 -227.5 q-6 -20 -13 -27.5t-28 -7.5h-59q-39 0 -39 29z" />
<glyph unicode="&#x201e;" horiz-adv-x="819" d="M119 -225l33 458q2 12 9 23.5t25 11.5h172q35 0 35 -26v-9q-35 -115 -68.5 -225t-68.5 -227q-6 -20 -12 -27.5t-27 -7.5h-61q-37 0 -37 29zM449 -225l32 458q2 12 9.5 23.5t25.5 11.5h172q35 0 35 -26v-9l-137 -452q-6 -20 -12.5 -27.5t-26.5 -7.5h-62q-37 0 -36 27v2z " />
<glyph unicode="&#x2020;" horiz-adv-x="1146" d="M111 854v96q0 16 5 24.5t25 8.5h353v424q0 20 8 25.5t24 5.5h123q16 0 22.5 -5.5t6.5 -25.5v-424h358q20 0 25.5 -8t5.5 -25v-96q0 -16 -5 -23.5t-26 -7.5h-358v-1011q0 -20 -6 -25.5t-23 -5.5h-123q-16 0 -24 5t-8 26v1011h-353q-20 0 -25 7.5t-5 23.5z" />
<glyph unicode="&#x2021;" horiz-adv-x="1146" d="M111 442v97q0 16 5 24t25 8h353v285h-353q-20 0 -25 8t-5 25v96q0 16 5 24.5t25 8.5h353v389q0 20 8 25.5t24 5.5h123q16 0 22.5 -5.5t6.5 -25.5v-389h358q20 0 25.5 -8.5t5.5 -24.5v-96q0 -16 -5 -24.5t-26 -8.5h-358v-285h358q20 0 25.5 -8t5.5 -24v-97q0 -16 -5 -24 t-26 -8h-358v-598q0 -20 -6 -25.5t-23 -5.5h-123q-16 0 -24 5t-8 26v598h-353q-20 0 -25 8t-5 24z" />
<glyph unicode="&#x2022;" horiz-adv-x="825" d="M168 610q0 51 19.5 97.5t53 80t79 53t96.5 19.5q53 0 98 -19.5t79 -53t53.5 -80t19.5 -97.5q0 -53 -19.5 -98t-53.5 -79t-79 -53.5t-98 -19.5q-51 0 -96.5 19.5t-79 53.5t-53 79t-19.5 98z" />
<glyph unicode="&#x2023;" horiz-adv-x="917" d="M147 141v748l715 -365z" />
<glyph unicode="&#x2026;" horiz-adv-x="1515" d="M113 121q0 61 43 103t104 42t103.5 -41t42.5 -104q0 -61 -42 -103.5t-104 -42.5q-61 0 -104 41t-43 105zM612 121q0 61 42 103t104 42q63 0 104 -41t41 -104q0 -61 -42 -103.5t-103 -42.5t-103.5 41t-42.5 105zM1110 121q0 61 42 103t105 42q61 0 102.5 -41t41.5 -104 q0 -61 -41 -103.5t-103 -42.5q-63 0 -105 41t-42 105z" />
<glyph unicode="&#x202f;" horiz-adv-x="375" />
<glyph unicode="&#x2030;" horiz-adv-x="2631" d="M82 961q0 96 22.5 174.5t67.5 135t112.5 87.5t159.5 31q96 0 164 -30t111 -85t63.5 -134t20.5 -177q0 -193 -88 -310.5t-275 -117.5q-182 0 -270 114.5t-88 311.5zM233 963q0 -55 9.5 -110.5t33 -99.5t64.5 -71t104 -27q61 0 101.5 28t64 71t32.5 97.5t9 109.5t-9 110 t-33.5 98t-65.5 70t-103 27q-59 0 -99 -27t-63.5 -70t-34 -97t-10.5 -109zM427.5 -39q-7.5 6 2.5 23l838 1413q10 16 16 22t23 6h71q10 0 18.5 -6t-1.5 -22l-840 -1413q-16 -29 -43 -29h-63q-14 0 -21.5 6zM1022 414q0 193 90 309.5t272 116.5q96 0 164 -30t111 -85 t63.5 -134t20.5 -175q0 -195 -88 -311.5t-275 -116.5q-182 0 -270 113.5t-88 312.5zM1174 416q0 -55 9 -110.5t32.5 -99.5t64.5 -70.5t104 -26.5q61 0 101.5 27.5t64 70.5t32.5 97.5t9 109.5t-9 109.5t-33.5 97.5t-65.5 69.5t-103 26.5q-59 0 -99 -26.5t-63.5 -69.5 t-33.5 -96.5t-10 -108.5zM1829 414q0 193 90 309.5t272 116.5q96 0 164 -30t111 -85t63.5 -134t20.5 -175q0 -195 -88 -311.5t-275 -116.5q-182 0 -270 113.5t-88 312.5zM1980 416q0 -55 9.5 -110.5t33 -99.5t64.5 -70.5t104 -26.5q61 0 101.5 27.5t64 70.5t32.5 97.5 t9 109.5t-9 109.5t-33.5 97.5t-65.5 69.5t-103 26.5q-59 0 -99 -26.5t-63.5 -69.5t-34 -96.5t-10.5 -108.5z" />
<glyph unicode="&#x2039;" horiz-adv-x="655" d="M127 500q0 27 10 47t21 37l196 321q10 16 23.5 26.5t44.5 10.5h102q18 0 25.5 -12t-2.5 -29l-242 -405l250 -394q10 -18 3 -28.5t-28 -10.5h-104q-33 0 -45 10.5t-23 26.5l-204 324q-8 14 -17.5 36.5t-9.5 39.5z" />
<glyph unicode="&#x203a;" horiz-adv-x="655" d="M95.5 73.5q-7.5 10.5 2.5 28.5l250 394l-242 405q-10 16 -2.5 28.5t25.5 12.5h102q33 0 45.5 -10t22.5 -27l197 -321q10 -16 21 -37t11 -47q0 -16 -9 -39t-19 -37l-205 -324q-10 -16 -22.5 -26.5t-43.5 -10.5h-106q-20 0 -27.5 10.5z" />
<glyph unicode="&#x2044;" horiz-adv-x="376" d="M-314.5 -39q-7.5 6 3.5 23l837 1413q10 16 16.5 22t22.5 6h72q10 0 18.5 -6t-2.5 -22l-839 -1413q-16 -29 -43 -29h-64q-14 0 -21.5 6z" />
<glyph unicode="&#x205f;" horiz-adv-x="468" />
<glyph unicode="&#x20ac;" d="M74 547v55q0 16 5 24.5t25 8.5h832q18 0 23.5 -8.5t5.5 -24.5v-55q0 -18 -5.5 -25.5t-23.5 -7.5h-557q16 -172 112.5 -271.5t294.5 -99.5q68 0 145 19.5t140 48.5q23 10 31 2t12 -18l37 -82q10 -25 5 -33t-15 -17q-86 -53 -189.5 -69.5t-195.5 -16.5q-238 0 -383.5 130.5 t-171.5 406.5h-97q-20 0 -25 7t-5 26zM74 788v56q0 16 5 24.5t25 8.5h103q16 119 64 215t122 164.5t169 105.5t206 37q76 0 162 -15.5t176 -62.5q10 -4 15 -12.5t-5 -30.5l-41 -90q-8 -14 -14 -16.5t-23 2.5q-55 27 -123.5 41t-138.5 14q-82 0 -147.5 -26.5t-112.5 -74 t-77.5 -112t-45.5 -139.5h543q18 0 23.5 -8.5t5.5 -24.5v-56q0 -18 -5.5 -25t-23.5 -7h-832q-20 0 -25 7t-5 25z" />
<glyph unicode="&#x2122;" horiz-adv-x="1667" d="M59 1352v59q0 25 23 25h584q23 0 22 -25v-59q0 -25 -22 -25h-236v-674q0 -16 -6 -20t-18 -4h-74q-12 0 -18.5 4t-6.5 20v674h-225q-23 0 -23 25zM766 651v725q0 25 11 42.5t46 17.5h41q31 0 49.5 -12.5t30.5 -43.5q2 -2 13.5 -29.5t26.5 -67.5t34.5 -86t35 -87t27 -68.5 t13.5 -29.5q16 -39 29.5 -74t29.5 -74h8q14 39 29.5 79t30.5 75l147 362q10 31 29.5 43.5t48.5 12.5h45q35 0 46 -17.5t11 -42.5v-725q0 -16 -7 -19t-17 -3h-72q-14 0 -18 3t-4 19v586h-7l-47 -125l-137 -336q-10 -27 -21.5 -37t-39.5 -10h-41q-29 0 -41.5 10.5t-22.5 36.5 l-131 320l-53 143h-4v-588q0 -16 -5.5 -19t-19.5 -3h-72q-12 0 -17 3t-5 19z" />
<glyph unicode="&#x25fc;" horiz-adv-x="1075" d="M0 0v1075h1075v-1075h-1075z" />
</font>
</defs>
</svg>
